Великолепная пятерка [5 сезон: 1-16 серии из 100] (2022-2023) SATRip от Files-x

Reply to topic
 
Author Message

Nicodem ®

Gender: Male

Longevity: 4 years

Posts: 1229

Post 15-Nov-2022 00:40

[Quote]

Великолепная пятерка
Год выпуска: 2022-2023
Жанр: Детектив, драма
Выпущено: Россия, "Триикс Медиа" по заказу Пятого канала
Режиссер: Сергей Полуянов (II)
В ролях: Павел Григорьев, Андрей Горбачёв, Алексей Красноцветов, Нодар Джанелидзе, Константин Гришанов, Егор Кутенков, Сергей Шоколов, Жанна Куприянова, Анастасия Владимирова, Надежда Астапова, Анна Екатерининская, Игорь Клинцов, Александр Лутченко, Наталья Калинина (III), Валентина Гущина, Алексей Шаранин, Екатерина Петрилина, Екатерина Веселова, Владимир Бирюков, Эдуард Диа Диникин, Никита Грушин, Мария Клименко (II), Олег Солодухин, Ольга Коткова, Валерия Кулешова, Маруся Иванова, Сергей Канаев, Валентин Бугаев, Анастасия Рудиш, Алёна Шмонина, Вячеслав Воронцов, Владислав Орлов (II), Мария Клешнина, Михаил Вокулов, Вадим Дубровин (II), Виктор Воронцов, Лана Долева, Павел Александровский, Никита Шамов, Артур Павленко, Максим Волков (II), Владимир Ляхов (II), Татьяна Тихменёва, Анастасия Русанова, Надежда Пенкина, Владислав Петрушин, Василий Рукша, Сергей Андриенко, Мира Мордасова, Мария Кошлакова, Алина Киричек, Павел Гурьев, Азат Алимбаев, Антон Успенский, Ирина Петрова (VI), Юлия Калашникова, Виктория Попугаева, Михаил Бракоренко, Александра Емельянова, Николай Скоромников, Елизавета Ковалёва, Владислав Лобанов, Дмитрий Лукьянов (II), Александр Власенко (II), Сергей Шихалеев, Алексей Козлов (VII), Ирина Гарькуша, Светлана Ляпунова, Алексей Клеянкин, Ксения Булатова
О фильме: Зрителей ждет немало сюрпризов и новых сюжетных линий в жизни героев. В семье Антона Ветрова появится мальчик. Они с супругой усыновят ребенка погибших друзей. Смогут ли они стать для него семьей – очень тонкий психологический момент. У Андрея Борисовича Головонова дочь Наташа приведет в дом своего парня Леху. И подполковнику придется не только проявлять смекалку при поисках преступников, но и смириться, что дочь стала невестой. У Тимура Бубнова дочь пойдет в школу. Конечно же связанные с этим обстоятельством бытовые проблемы знакомы каждому... Будь то, собрать ребенка в первый класс, первая детская влюбленность, подготовка домашнего задания и многое другое – все это близко нашему зрителю. А также Тимур Бубнов проявит себя как настоящий кулинар и поделится со зрителями рецептами оригинальных блюд. Дмитрий Красавченко в полной мере почувствует воздух свободы — завидный холостяк наконец-то переедет от родителей в собственную квартиру. Лейтенант Кузьмин научится ездить верхом на лошади и не только. Вообще сценаристы обещают его персонажу много сюрпризов...Павлу Шапошникову не одну серию придется доказывать жене, что он достоин прощения, после того как супруга поймает его с поличным в объятиях разлучницы. К радости женской части аудитории Алина решит порвать с Шапошниковым и устраивать личную жизнь без него...Как персонажи справляются с этими задачами, оставаясь профессионалами на работе и надежной опорой друг другу, вы сможете увидеть в новом 5 сезоне.

Качество: SATRip
Видео: XviD, ~ 1577 Кбит/с, 720x400, 25 кадр/с
Аудио: AC3, 2 ch, 192 Кбит/с
Продолжительность: 16 x ~ 00:38:20
Перевод: Не требуется
Cубтитры: нет

Скриншоты



MediaInfo

General
Complete name : C:231.Великолепная пятёрка.s05.E01 (пак 1).(2022-2023).SATRip.by.Nicodem.Files-x.avi
Format : AVI
Format/Info : Audio Video Interleave
File size : 490 MiB
Duration : 38mn 31s
Overall bit rate : 1 778 Kbps
Writing application : VirtualDubMod 1.5.10.3 | www.virtualdub-fr.org || (build 2550/release)
Writing library : VirtualDubMod build 2550/release
Video
ID : 0
Format : MPEG-4 Visual
Format profile : Advanced Simple@L5
Format settings, BVOP : 1
Format settings, QPel : No
Format settings, GMC : No warppoints
Format settings, Matrix : Custom
Codec ID : XVID
Codec ID/Hint : XviD
Duration : 38mn 31s
Bit rate : 1 577 Kbps
Width : 720 pixels
Height : 400 pixels
Display aspect ratio : 16:9
Frame rate : 25.000 fps
Color space : YUV
Chroma subsampling : 4:2:0
Bit depth : 8 bits
Scan type : Progressive
Compression mode : Lossy
Bits/(Pixel*Frame) : 0.219
Stream size : 434 MiB (89%)
Writing library : XviD 73
Audio
ID : 1
Format : AC-3
Format/Info : Audio Coding 3
Mode extension : CM (complete main)
Codec ID : 2000
Duration : 38mn 31s
Bit rate mode : Constant
Bit rate : 192 Kbps
Channel(s) : 2 channels
Channel positions : Front: L R
Sampling rate : 48.0 KHz
Bit depth : 16 bits
Compression mode : Lossy
Stream size : 52.9 MiB (11%)
Alignment : Split accross interleaves
Interleave, duration : 40 ms (1.00 video frame)
Interleave, preload duration : 500 ms

Содержание

ПАК № 1 СЕРИИ С 1-50
(231) 1 серия "Оперативный роман"
(232) 2 серия "Похищенная"
(233) 3 серия "Акрополь"
(234) 4 серия "Ростовщица"
(235) 5 серия "Будь моим сыном"
(236) 6 серия "Мрачные узы"
(237) 7 серия "Управление вселенной в домашних условиях"
(238) 8 серия "Диагноз"
(239) 9 серия "Переезд"
(240) 10 серия "Взрыв мозга"
(241) 11 серия "Смерть амазонки"
(242) 12 серия "Ингаляция"
(243) 13 серия "Родня"
(244) 14 серия "Доброе сердце"
(245) 15 серия "Треугольник"
(246) 16 серия "Простая семья"
(247) 17 серия "Холодное блюдо"
(248) 18 серия "Американский гость"
(249) 19 серия "Благие намерения"
(250) 20 серия "Портрет в синих тонах"
(251) 21 серия "Имитация"
(252) 22 серия "Обратная сторона рая"
(253) 23 серия "Свадьба"
(254) 24 серия "На пределе"
(255) 25 серия ""
(256) 26 серия ""
(257) 27 серия ""
(258) 28 серия ""
(259) 29 серия ""
(260) 30 серия ""
(261) 31 серия ""
(262) 32 серия ""
(263) 33 серия ""
(264) 34 серия ""
(265) 35 серия ""
(266) 36 серия ""
(267) 37 серия ""
(268) 38 серия ""
(269) 39 серия ""
(270) 40 серия ""
(271) 41 серия ""
(272) 42 серия ""
(273) 43 серия ""
(274) 44 серия ""
(275) 45 серия ""
(276) 46 серия ""
(277) 47 серия ""
(278) 48 серия ""
(279) 49 серия ""
(280) 50 серия ""

Раздача ведётся путём добавления новых серий

Внимание! Раздача ведётся путём добавления новых серий; при каждом добавлении создаётся новый торрент.
Чтобы начать докачку новой серии, пользователям необходимо сделать следующее:
1. Остановить скачивание;
2. Удалить старый торрент у себя из клиента (старые серии удалять не надо);
3. Скачать новый торрент и запустить его у себя в клиенте вместо старого, при этом указать клиенту путь в старую папку куда и должно происходить скачивание новых серий. Ваш клиент при этом должен произвести хеширование (проверку) старой папки и будет докачивать только те серии, которых у вас ещё нет. Старые серии при этом не удаляются, а продолжают раздаваться! Eсли вы уже удалили старые серии, то предотвратить повторную закачку старых серий можно, отжав галочку в соответствующих местах при запуске нового торрента.
Релиз от:

Release was prepared by RG Files-x

[Profile] [PM]
Display posts:    
Reply to topic

Current time is: 27-Nov 03:55

All times are UTC + 3



You cannot post new topics in this forum
You cannot reply to topics in this forum
You cannot edit your posts in this forum
You cannot delete your posts in this forum
You cannot vote in polls in this forum
You cannot attach files in this forum
You cannot download files in this forum