Великолепная пятерка [5 сезон: 1-12 серии из 100] (2022-2023) WEBRip 1080p от Files-x

Reply to topic
 
Author Message

bond74 ®

Gender: Male

Longevity: 4 years

Posts: 1822

Post 15-Nov-2022 20:08

[Quote]

Великолепная пятерка
Год выпуска: 2022-2023
Жанр: Детектив, драма
Выпущено: Россия, "Триикс Медиа" по заказу Пятого канала
Режиссер: Сергей Полуянов (II)
В ролях: Павел Григорьев, Андрей Горбачёв, Алексей Красноцветов, Нодар Джанелидзе, Константин Гришанов, Егор Кутенков, Сергей Шоколов, Жанна Куприянова, Анастасия Владимирова, Надежда Астапова, Анна Екатерининская, Игорь Клинцов, Александр Лутченко, Наталья Калинина (III), Валентина Гущина, Алексей Шаранин, Екатерина Петрилина, Екатерина Веселова, Владимир Бирюков, Эдуард Диа Диникин, Никита Грушин, Мария Клименко (II), Олег Солодухин, Ольга Коткова, Валерия Кулешова, Маруся Иванова, Сергей Канаев, Валентин Бугаев, Анастасия Рудиш, Алёна Шмонина, Вячеслав Воронцов, Владислав Орлов (II), Мария Клешнина, Михаил Вокулов, Вадим Дубровин (II), Виктор Воронцов, Лана Долева, Павел Александровский, Никита Шамов, Артур Павленко, Максим Волков (II), Владимир Ляхов (II), Татьяна Тихменёва, Анастасия Русанова, Надежда Пенкина, Владислав Петрушин, Василий Рукша, Сергей Андриенко, Мира Мордасова, Мария Кошлакова, Алина Киричек, Павел Гурьев, Азат Алимбаев, Антон Успенский, Ирина Петрова (VI), Юлия Калашникова, Виктория Попугаева, Михаил Бракоренко, Александра Емельянова, Николай Скоромников, Елизавета Ковалёва, Владислав Лобанов, Дмитрий Лукьянов (II), Александр Власенко (II), Сергей Шихалеев, Алексей Козлов (VII), Ирина Гарькуша, Светлана Ляпунова, Алексей Клеянкин, Ксения Булатова
О фильме: Зрителей ждет немало сюрпризов и новых сюжетных линий в жизни героев. В семье Антона Ветрова появится мальчик. Они с супругой усыновят ребенка погибших друзей. Смогут ли они стать для него семьей – очень тонкий психологический момент. У Андрея Борисовича Головонова дочь Наташа приведет в дом своего парня Леху. И подполковнику придется не только проявлять смекалку при поисках преступников, но и смириться, что дочь стала невестой. У Тимура Бубнова дочь пойдет в школу. Конечно же связанные с этим обстоятельством бытовые проблемы знакомы каждому... Будь то, собрать ребенка в первый класс, первая детская влюбленность, подготовка домашнего задания и многое другое – все это близко нашему зрителю. А также Тимур Бубнов проявит себя как настоящий кулинар и поделится со зрителями рецептами оригинальных блюд. Дмитрий Красавченко в полной мере почувствует воздух свободы — завидный холостяк наконец-то переедет от родителей в собственную квартиру. Лейтенант Кузьмин научится ездить верхом на лошади и не только. Вообще сценаристы обещают его персонажу много сюрпризов...Павлу Шапошникову не одну серию придется доказывать жене, что он достоин прощения, после того как супруга поймает его с поличным в объятиях разлучницы. К радости женской части аудитории Алина решит порвать с Шапошниковым и устраивать личную жизнь без него...Как персонажи справляются с этими задачами, оставаясь профессионалами на работе и надежной опорой друг другу, вы сможете увидеть в новом 5 сезоне.

Качество: WEBRip 1080p
Видео: MPEG-4 AVC, ~ 2300 Кбит/с, 1920x1080, 25 кадр/с
Аудио: AC3, 2 ch, 192 Кбит/с
Продолжительность: 2 x ~ 00:38:20
Перевод: Не требуется
Cубтитры: нет

Скриншоты




MediaInfo

Общее
Уникальный идентификатор : 235015663305118027486645370374818251204 (0xB0CE5ECE55FBA377A923BEE8645241C4)
Полное имя : C:\films\Великолепная пятерка.s05.2022.WEBRip 1080р.Files-x\01. Великолепная пятерка.s05.2022.WEBRip 1080р.Files-x.mkv
Формат : Matroska
Версия формата : Version 4
Размер файла : 700 Мбайт
Продолжительность : 40 м. 20 с.
Общий поток : 2 427 Кбит/сек
Дата кодирования : UTC 2022-11-15 09:05:46
Программа кодирования : mkvmerge v7.8.0 ('River Man') 32bit built on Apr 3 2015 12:11:22
Библиотека кодирования : libebml v1.3.1 + libmatroska v1.4.2
Видео
Идентификатор : 1
Формат : AVC
Формат/Информация : Advanced Video Codec
Профиль формата : High@L4
Настройки формата : CABAC / 3 Ref Frames
Параметр CABAC формата : Да
Параметр RefFrames формата : 3 кадра
Идентификатор кодека : V_MPEG4/ISO/AVC
Продолжительность : 40 м. 20 с.
Битрейт : 2 233 Кбит/сек
Ширина : 1 920 пикселей
Высота : 1 080 пикселей
Соотношение сторон : 16:9
Режим частоты кадров : Постоянный
Частота кадров : 25,000 кадров/сек
Цветовое пространство : YUV
Субдискретизация насыщенности : 4:2:0
Битовая глубина : 8 бит
Тип развёртки : Прогрессивная
Бит/(Пиксели*Кадры) : 0.043
Размер потока : 644 Мбайт (92%)
Default : Да
Forced : Нет
Цветовой диапазон : Limited
Основные цвета : BT.709
Характеристики трансфера : BT.709
Коэффициенты матрицы : BT.709
Аудио
Идентификатор : 2
Формат : AC-3
Формат/Информация : Audio Coding 3
Коммерческое название : Dolby Digital
Идентификатор кодека : A_AC3
Продолжительность : 40 м. 20 с.
Вид битрейта : Постоянный
Битрейт : 192 Кбит/сек
Каналы : 2 канала
Channel layout : L R
Частота : 44,1 КГц
Частота кадров : 28,711 кадров/сек (1536 SPF)
Метод сжатия : С потерями
Размер потока : 55,4 Мбайт (8%)
Service kind : Complete Main
Default : Да
Forced : Нет

Содержание

ПАК № 1 СЕРИИ С 1-50
(231) 1 серия "Оперативный роман"
(232) 2 серия "Похищенная"
(233) 3 серия "Акрополь"
(234) 4 серия "Ростовщица"
(235) 5 серия "Будь моим сыном"
(236) 6 серия "Мрачные узы"
(237) 7 серия "Управление вселенной в домашних условиях"
(238) 8 серия "Диагноз"
(239) 9 серия "Переезд"
(240) 10 серия "Взрыв мозга"
(241) 11 серия "Смерть амазонки"
(242) 12 серия "Ингаляция"
(243) 13 серия "Родня"
(244) 14 серия "Доброе сердце"
(245) 15 серия "Треугольник"
(246) 16 серия "Простая семья"
(247) 17 серия ""
(248) 18 серия ""
(249) 19 серия ""
(250) 20 серия ""
(251) 21 серия ""
(252) 22 серия ""
(253) 23 серия ""
(254) 24 серия ""
(255) 25 серия ""
(256) 26 серия ""
(257) 27 серия ""
(258) 28 серия ""
(259) 29 серия ""
(260) 30 серия ""
(261) 31 серия ""
(262) 32 серия ""
(263) 33 серия ""
(264) 34 серия ""
(265) 35 серия ""
(266) 36 серия ""
(267) 37 серия ""
(268) 38 серия ""
(269) 39 серия ""
(270) 40 серия ""
(271) 41 серия ""
(272) 42 серия ""
(273) 43 серия ""
(274) 44 серия ""
(275) 45 серия ""
(276) 46 серия ""
(277) 47 серия ""
(278) 48 серия ""
(279) 49 серия ""
(280) 50 серия ""

Раздача ведётся путём добавления новых серий

Внимание! Раздача ведётся путём добавления новых серий; при каждом добавлении создаётся новый торрент.
Чтобы начать докачку новой серии, пользователям необходимо сделать следующее:
1. Остановить скачивание;
2. Удалить старый торрент у себя из клиента (старые серии удалять не надо);
3. Скачать новый торрент и запустить его у себя в клиенте вместо старого, при этом указать клиенту путь в старую папку куда и должно происходить скачивание новых серий. Ваш клиент при этом должен произвести хеширование (проверку) старой папки и будет докачивать только те серии, которых у вас ещё нет. Старые серии при этом не удаляются, а продолжают раздаваться! Eсли вы уже удалили старые серии, то предотвратить повторную закачку старых серий можно, отжав галочку в соответствующих местах при запуске нового торрента.
Релиз от:

Release was prepared by RG Files-x

[Profile] [PM]
Display posts:    
Reply to topic

Current time is: 27-Nov 04:43

All times are UTC + 3



You cannot post new topics in this forum
You cannot reply to topics in this forum
You cannot edit your posts in this forum
You cannot delete your posts in this forum
You cannot vote in polls in this forum
You cannot attach files in this forum
You cannot download files in this forum