Столичная штучка [1-4 серии из 4] (2022) WEBRip 1080p от Files-х

Reply to topic
 
Author Message

bond74 ®

Gender: Male

Longevity: 4 years 2 months

Posts: 1845

Post 27-Nov-2022 00:48

[Quote]

Столичная штучка
Год выпуска: 2022
Жанр: Мелодрама
Выпущено: Россия, Кинокомпания «Свэлл Фильм»
Режиссер: Артур Румынский
В ролях: Аглая Шиловская, Александр Устюгов, Анатолий Лобоцкий, Екатерина Соломатина, Елена Муравьёва, Любовь Зайцева, Виктор Супрун, Андрей Финягин, Ирина Темичева
О фильме: Марина Новикова – менеджер в агропромышленной компании, она привыкла к городскому ритму, каблукам и маникюру. Но однажды её отправляют руководить установкой нового доильного аппарата в отдаленный район Тамбовской глубинки. Новая должность переворачивает привычный мир героини: отныне она живет в гостевом доме с баней, а окружают её простые односельчане и самые настоящие коровы. При этом местные жители вообще не уверены, что им нужны «инновации» в области дойки. И теперь главная её задача – убедить местных жителей в их пользе. Марине придётся расположить к себе мастера на все руки Валеру, который пользуется авторитетом у простых работяг и самой научиться находить общий язык с ними, а ещё пройти путь от 2столичной штучки" к себе настоящей…

Качество: WEBRip 1080p
Видео: MPEG-4 AVC, ~ 4852 Кбит/с, 1920x1080
Аудио: AC3, 2 ch, 192 Кбит/с
Продолжительность: 4 х ~ 00:45:00
Язык: Русский

Скриншоты




MediaInfo

Общее
Уникальный идентификатор : 238215401532434658064836711320575658662 (0xB3369E14A5BCBF78BDE6D7A4B4B5CAA6)
Полное имя : C:\films\Столичная штучка.2022.WEB-DL 1080p.Files-x\03. Столичная штучка.2022.WEB-DL 1080p.Files-x.mkv
Формат : Matroska
Версия формата : Version 2
Размер файла : 1,55 Гбайт
Продолжительность : 43 м. 29 с.
Режим общего битрейта : Переменный
Общий поток : 5 104 Кбит/сек
Дата кодирования : UTC 2022-11-26 10:25:09
Программа кодирования : mkvmerge v7.8.0 ('River Man') 32bit built on Apr 3 2015 12:11:22
Библиотека кодирования : libebml v1.3.1 + libmatroska v1.4.2
Видео
Идентификатор : 1
Формат : AVC
Формат/Информация : Advanced Video Codec
Профиль формата : High@L4
Настройки формата : CABAC / 2 Ref Frames
Параметр CABAC формата : Да
Параметр RefFrames формата : 2 кадра
Идентификатор кодека : V_MPEG4/ISO/AVC
Продолжительность : 43 м. 29 с.
Вид битрейта : Переменный
Битрейт : 4 811 Кбит/сек
Максимальный битрейт : 8 000 Кбит/сек
Ширина : 1 920 пикселей
Высота : 1 080 пикселей
Соотношение сторон : 16:9
Режим частоты кадров : Постоянный
Частота кадров : 25,000 кадров/сек
Цветовое пространство : YUV
Субдискретизация насыщенности : 4:2:0
Битовая глубина : 8 бит
Тип развёртки : Прогрессивная
Бит/(Пиксели*Кадры) : 0.093
Размер потока : 1,46 Гбайт (94%)
Default : Нет
Forced : Нет
Аудио
Идентификатор : 2
Формат : AC-3
Формат/Информация : Audio Coding 3
Коммерческое название : Dolby Digital
Идентификатор кодека : A_AC3
Продолжительность : 43 м. 29 с.
Вид битрейта : Постоянный
Битрейт : 192 Кбит/сек
Каналы : 2 канала
Channel layout : L R
Частота : 48,0 КГц
Частота кадров : 31,250 кадров/сек (1536 SPF)
Метод сжатия : С потерями
Задержка видео : -200 мс.
Размер потока : 59,7 Мбайт (4%)
Service kind : Complete Main
Default : Да
Forced : Нет

Раздача ведётся путём добавления новых серий

Внимание! Раздача ведётся путём добавления новых серий; при каждом добавлении создаётся новый торрент.
Чтобы начать докачку новой серии, пользователям необходимо сделать следующее:
1. Остановить скачивание;
2. Удалить старый торрент у себя из клиента (старые серии удалять не надо);
3. Скачать новый торрент и запустить его у себя в клиенте вместо старого, при этом указать клиенту путь в старую папку куда и должно происходить скачивание новых серий. Ваш клиент при этом должен произвести хеширование (проверку) старой папки и будет докачивать только те серии, которых у вас ещё нет. Старые серии при этом не удаляются, а продолжают раздаваться! Eсли вы уже удалили старые серии, то предотвратить повторную закачку старых серий можно, отжав галочку в соответствующих местах при запуске нового торрента.
Релиз от:

Release was prepared by RG Files-x

[Profile] [PM]
Display posts:    
Reply to topic

Current time is: 03-Feb 02:47

All times are UTC + 3



You cannot post new topics in this forum
You cannot reply to topics in this forum
You cannot edit your posts in this forum
You cannot delete your posts in this forum
You cannot vote in polls in this forum
You cannot attach files in this forum
You cannot download files in this forum