Девочки мои [1-4 серии из 4] (2018) WEB-DLRip от Files-x

Reply to topic
 
Author Message

Nicodem ®

Gender: Male

Longevity: 1 year 2 months

Posts: 362

Post 22-Dec-2018 20:08

[Quote]

Девочки мои
Год выпуска: 2018
Жанр: Мелодрама
Выпущено: Украина, VILETON FILMS, Filmstream
Режиссер: Николай Михайлов (III)
В ролях: Дарья Волга, Валерия Федорович, Анастасия Шульга, Ева Шевченко-Головко, Дмитрий Шевченко, Дмитрий Пчела, Игорь Пазыч, Валерий Легин, Валентин Томусяк, Игорь Петрусенко, Богдан Осадчук, Алина Коваленко, Людмила Ардельян, Яна Ляхович, Андрей Журба, Владислава Глеба, Константин Данилюк, Вероника Лукьяненко, Анатолий Сомик, Елена Хижная, Виктория Билан
О фильме: Татьяна Янина, неунывающая женщина возраста "ягодка опять", всю себя отдает заботам о "своих девочках": дочках Ульяне и Марьяне, внучке Яне и собаке Буяне. Мужчины, как шутит Татьяна, в их доме не приживаются. Поэтому ни Ульяна, ни Марьяна, ни Яна со своими отцами не общаются. По примеру Татьяны, у ее дочерей не очень ладится личная жизнь. Но общаться с мужчинами всё же придется всем Яниным...

Качество: WEB-DLRip
Видео: XviD, ~ 1694 Кбит/с, 720x400, 25 кадр/с
Аудио: AC3, 2 ch, 192 Кбит/с
Продолжительность: 4 x ~ 00:44:15
Перевод: Не требуется
Cубтитры: нет

Скриншоты



MediaInfo

General
Complete name : C:01.Девочки мои.(2018).WEB-DLRip.by.Nicodem.Files-x.avi
Format : AVI
Format/Info : Audio Video Interleave
File size : 600 MiB
Duration : 44mn 15s
Overall bit rate : 1 896 Kbps
Writing application : VirtualDubMod 1.5.10.3 | www.virtualdub-fr.org || (build 2550/release)
Writing library : VirtualDubMod build 2550/release
Video
ID : 0
Format : MPEG-4 Visual
Format profile : Advanced Simple@L5
Format settings, BVOP : 1
Format settings, QPel : No
Format settings, GMC : No warppoints
Format settings, Matrix : Custom
Codec ID : XVID
Codec ID/Hint : XviD
Duration : 44mn 15s
Bit rate : 1 694 Kbps
Width : 720 pixels
Height : 400 pixels
Display aspect ratio : 16:9
Frame rate : 25.000 fps
Color space : YUV
Chroma subsampling : 4:2:0
Bit depth : 8 bits
Scan type : Progressive
Compression mode : Lossy
Bits/(Pixel*Frame) : 0.235
Stream size : 536 MiB (89%)
Writing library : XviD 73
Audio
ID : 1
Format : AC-3
Format/Info : Audio Coding 3
Mode extension : CM (complete main)
Codec ID : 2000
Duration : 44mn 15s
Bit rate mode : Constant
Bit rate : 192 Kbps
Channel(s) : 2 channels
Channel positions : Front: L R
Sampling rate : 48.0 KHz
Bit depth : 16 bits
Compression mode : Lossy
Stream size : 60.8 MiB (10%)
Alignment : Split accross interleaves
Interleave, duration : 40 ms (1.00 video frame)
Interleave, preload duration : 500 ms

Раздача ведётся путём добавления новых серий

Внимание! Раздача ведётся путём добавления новых серий; при каждом добавлении создаётся новый торрент.
Чтобы начать докачку новой серии, пользователям необходимо сделать следующее:
1. Остановить скачивание;
2. Удалить старый торрент у себя из клиента (старые серии удалять не надо);
3. Скачать новый торрент и запустить его у себя в клиенте вместо старого, при этом указать клиенту путь в старую папку куда и должно происходить скачивание новых серий. Ваш клиент при этом должен произвести хеширование (проверку) старой папки и будет докачивать только те серии, которых у вас ещё нет. Старые серии при этом не удаляются, а продолжают раздаваться! Eсли вы уже удалили старые серии, то предотвратить повторную закачку старых серий можно, отжав галочку в соответствующих местах при запуске нового торрента.
Релиз от:


Last edited by Nicodem on 2020-01-14 15:37; edited 3 times in total
[Profile] [PM]

daa51

Gender: Male

Longevity: 1 year 2 months

Posts: 6

Location: Кубань

Post 22-Dec-2018 20:30 (after 21 minute)

[Quote]

А кто раздает? Никого нет на раздаче!
[Profile] [PM]

Nicodem ®

Gender: Male

Longevity: 1 year 2 months

Posts: 362

Post 22-Dec-2018 21:30 (after 1 hour)

[Quote]

3365А кто раздает? Никого нет на раздаче!
Раздача СЕТЕВАЯ
[Profile] [PM]

Nicodem ®

Gender: Male

Longevity: 1 year 2 months

Posts: 362

Post 14-Jan-2020 15:39 (after 1 year)

[Quote]

Замена на раздачу без ЛОГО канала
[Profile] [PM]
Display posts:    
Reply to topic

Current time is: 27-Jan 06:24

All times are UTC + 3



You cannot post new topics in this forum
You cannot reply to topics in this forum
You cannot edit your posts in this forum
You cannot delete your posts in this forum
You cannot vote in polls in this forum
You cannot attach files in this forum
You cannot download files in this forum