Девочки мои [1-4 серии из 4] (2018) WEB-DL 720p от Files-x

Reply to topic
 
Author Message

Nicodem ®

Gender: Male

Longevity: 1 year 8 months

Posts: 560

Post 23-Dec-2018 01:12

[Quote]

Девочки мои
Год выпуска: 2018
Жанр: Мелодрама
Выпущено: Украина, VILETON FILMS, Filmstream
Режиссер: Николай Михайлов (III)
В ролях: Дарья Волга, Валерия Федорович, Анастасия Шульга, Ева Шевченко-Головко, Дмитрий Шевченко, Дмитрий Пчела, Игорь Пазыч, Валерий Легин, Валентин Томусяк, Игорь Петрусенко, Богдан Осадчук, Алина Коваленко, Людмила Ардельян, Яна Ляхович, Андрей Журба, Владислава Глеба, Константин Данилюк, Вероника Лукьяненко, Анатолий Сомик, Елена Хижная, Виктория Билан
О фильме: Татьяна Янина, неунывающая женщина возраста "ягодка опять", всю себя отдает заботам о "своих девочках": дочках Ульяне и Марьяне, внучке Яне и собаке Буяне. Мужчины, как шутит Татьяна, в их доме не приживаются. Поэтому ни Ульяна, ни Марьяна, ни Яна со своими отцами не общаются. По примеру Татьяны, у ее дочерей не очень ладится личная жизнь. Но общаться с мужчинами всё же придется всем Яниным...

Качество: WEB-DL 720p
Видео: MPEG-4 AVC, ~ 3500 Кбит/с, 1280х720, 25 кадр/с
Аудио: AC3, 2 ch, 192 Кбит/с
Продолжительность: 4 x ~ 00:44:15
Перевод: Не требуется
Cубтитры: нет

Скриншоты



MediaInfo

General
Unique ID : 340016919252675730270753305318382709586 (0xFFCCE06B64DDA8D34C5A173928552B52)
Complete name : C:01.Девочки мои.(2018).WEB-DL (720p).by.Nicodem.Files-x.mkv
Format : Matroska
File size : 1.14 GiB
Duration : 44mn 15s
Overall bit rate : 3 679 Kbps
Writing application : Lavf56.36.100
Writing library : Lavf56.36.100
Video
ID : 1
Format : AVC
Format/Info : Advanced Video Codec
Format profile : High@L4.1
Format settings, CABAC : Yes
Format settings, ReFrames : 5 frames
Codec ID : V_MPEG4/ISO/AVC
Duration : 44mn 15s
Bit rate : 3 500 Kbps
Width : 1 280 pixels
Height : 720 pixels
Display aspect ratio : 16:9
Frame rate mode : Variable
Frame rate : 25.000 fps
Color space : YUV
Chroma subsampling : 4:2:0
Bit depth : 8 bits
Scan type : Progressive
Bits/(Pixel*Frame) : 0.152
Stream size : 1.06 GiB (93%)
Writing library : x264 core 148
Encoding settings : cabac=1 / ref=5 / deblock=1:0:0 / analyse=0x3:0x113 / me=hex / subme=8 / psy=1 / psy_rd=1.00:0.00 / mixed_ref=1 / me_range=16 / chroma_me=1 / trellis=2 / 8x8dct=1 / cqm=0 / deadzone=21,11 / fast_pskip=1 / chroma_qp_offset=-2 / threads=22 / lookahead_threads=3 / sliced_threads=0 / nr=0 / decimate=1 / interlaced=0 / bluray_compat=0 / constrained_intra=0 / bframes=3 / b_pyramid=2 / b_adapt=1 / b_bias=0 / direct=3 / weightb=1 / open_gop=0 / weightp=2 / keyint=250 / keyint_min=25 / scenecut=0 / intra_refresh=0 / rc_lookahead=50 / rc=abr / mbtree=1 / bitrate=3500 / ratetol=1.0 / qcomp=0.60 / qpmin=0 / qpmax=69 / qpstep=4 / ip_ratio=1.40 / aq=1:1.00
Language : English
Audio
ID : 2
Format : AC-3
Format/Info : Audio Coding 3
Mode extension : CM (complete main)
Codec ID : A_AC3
Duration : 44mn 15s
Bit rate mode : Constant
Bit rate : 192 Kbps
Channel(s) : 2 channels
Channel positions : Front: L R
Sampling rate : 44.1 KHz
Bit depth : 16 bits
Compression mode : Lossy
Delay relative to video : 1mn 5s
Stream size : 60.8 MiB (5%)
Language : English / un

Раздача ведётся путём добавления новых серий

Внимание! Раздача ведётся путём добавления новых серий; при каждом добавлении создаётся новый торрент.
Чтобы начать докачку новой серии, пользователям необходимо сделать следующее:
1. Остановить скачивание;
2. Удалить старый торрент у себя из клиента (старые серии удалять не надо);
3. Скачать новый торрент и запустить его у себя в клиенте вместо старого, при этом указать клиенту путь в старую папку куда и должно происходить скачивание новых серий. Ваш клиент при этом должен произвести хеширование (проверку) старой папки и будет докачивать только те серии, которых у вас ещё нет. Старые серии при этом не удаляются, а продолжают раздаваться! Eсли вы уже удалили старые серии, то предотвратить повторную закачку старых серий можно, отжав галочку в соответствующих местах при запуске нового торрента.
Релиз от:

Release was prepared by RG Files-x

[Profile] [PM]

Nicodem ®

Gender: Male

Longevity: 1 year 8 months

Posts: 560

Post 14-Jan-2020 15:37 (after 1 year)

[Quote]

Замена на релиз без ЛОГО канала
[Profile] [PM]
Display posts:    
Reply to topic

Current time is: 13-Aug 11:05

All times are UTC + 3



You cannot post new topics in this forum
You cannot reply to topics in this forum
You cannot edit your posts in this forum
You cannot delete your posts in this forum
You cannot vote in polls in this forum
You cannot attach files in this forum
You cannot download files in this forum