Танцы [5 сезон: 1-21 выпуски из 21] (2018) HDTV 1080i

Reply to topic
 
Author Message

Мухич ®

Gender: Male

Longevity: 1 year 11 months

Posts: 43

Post 23-Dec-2018 15:07

[Quote]

Танцы
Год выпуска: 2018
Жанр: Реалити-шоу, танцы, развлекательный, хореография
Выпущено: Россия, Comedy Club Production, Телеканал ТНТ
Режиссер: Анатолий Шпульников
В ролях: Мигель, Татьяна Денисова, Егор Дружинин
Ведущий: Ляйсан Утяшева
О фильме: 25 августа на ТНТ стартует главный танцевальный проект страны! Пятый сезон шоу «ТАНЦЫ» станет самым необычным и интригующим – впервые в истории проекта в нем будет сразу три наставника! Отбирать участников на кастингах, проводить отбор в команды и вести танцовщиков к победе будут Мигель, Татьяна Денисова и вернувшийся в проект Егор Дружинин. Такого сезона шоу «ТАНЦЫ» еще никогда не было. Три наставника, три команды, три совершенно разных подхода к искусству танца. Пока не ясно, как сложатся отношения между Мигелем, Татьяной и Егором, но я уверен, что всем нам будет интересно наблюдать за этим хореографическим треугольником.

Качество: HDTV 1080i
Видео: MPEG-4 AVC, ~ 12.1 Mбит/с, 1920х1080
Аудио: MP2, 2 ch, 192 Кбит/с
Продолжительность: 21 x ~ 01:32:00
Перевод: Не требуется
Субтитры: нет

Скриншоты


MediaInfo

General
ID : 1 (0x1)
Complete name : \\HOME\Tancy.s05.2018.HDTV(1080i).25Kuzmich\Tancy.s05.e01.HDTV(1080i).25Kuzmich.ts
Format : MPEG-TS
File size : 8.38 GiB
Duration : 1 h 32 min
Overall bit rate mode : Variable
Overall bit rate : 13.0 Mb/s
Video
ID : 207 (0xCF)
Menu ID : 2207 (0x89F)
Format : AVC
Format/Info : Advanced Video Codec
Format profile : High@L4
Format settings : CABAC / 4 Ref Frames
Format settings, CABAC : Yes
Format settings, RefFrames : 4 frames
Codec ID : 27
Duration : 1 h 32 min
Bit rate : 12.1 Mb/s
Width : 1 920 pixels
Height : 1 080 pixels
Display aspect ratio : 16:9
Frame rate : 25.000 FPS
Standard : Component
Color space : YUV
Chroma subsampling : 4:2:0
Bit depth : 8 bits
Scan type : Interlaced
Scan type, store method : Separated fields
Scan order : Top Field First
Bits/(Pixel*Frame) : 0.234
Stream size : 7.84 GiB (94%)
Color range : Limited
Color primaries : BT.709
Transfer characteristics : BT.709
Matrix coefficients : BT.709
Audio
ID : 307 (0x133)
Menu ID : 2207 (0x89F)
Format : MPEG Audio
Format version : Version 1
Format profile : Layer 2
Codec ID : 3
Duration : 1 h 32 min
Bit rate mode : Constant
Bit rate : 192 kb/s
Channel(s) : 2 channels
Sampling rate : 48.0 kHz
Frame rate : 41.667 FPS (1152 SPF)
Compression mode : Lossy
Delay relative to video : -120 ms
Stream size : 127 MiB (1%)
Language : Russian
Автор релиза: 25Kuzmich
[Profile] [PM]
Display posts:    
Reply to topic

Current time is: 23-Oct 10:51

All times are UTC + 3



You cannot post new topics in this forum
You cannot reply to topics in this forum
You cannot edit your posts in this forum
You cannot delete your posts in this forum
You cannot vote in polls in this forum
You cannot attach files in this forum
You cannot download files in this forum