Операция «Шаровая молния» / Entebbe (2018) BDRip 1080p | iTunes

Reply to topic
 
Author Message

runetzone ®

Gender: Male

Longevity: 11 months 9 days

Posts: 65

Location: Санкт-Петербург

Post 12-Jan-2019 12:09

[Quote]

Операция «Шаровая молния» / Entebbe Год выпуска: 2018
Жанр: Триллер, драма, криминал, реальные события
Выпущено: Великобритания, США, Participant Media
Режиссер: Жозе Падилья
В ролях: Розамунд Пайк, Даниэль Брюль, Эдди Марсан, Бен Шнетцер, Нонсо Анози, Марк Иванир, Дени Меноше, Хуан Пабло Раба, Анхель Бунани, Бронтис Ходоровски
О фильме: В 1976 году самолет, следовавший из Тель-Авива в Париж, был захвачен террористами и совершил вынужденную посадку в аэропорту Энтеббе в Уганде с целью обмена заложников на осужденных преступников. Дипломатического решения вопроса за 7 дней найти не удалось. Тогда был разработан весьма изобретательный и крайне смелый план спасения...

Качество: BDRip 1080p
Видео: MPEG-4 AVC, 13.1 Mбит/с, 1920x804, 23.976 fps
Аудио: Русский (AC3, 6 ch, 384 Кбит/с), (AC3, 2 ch, 192 Кбит/с), английский (AC3, 6 ch, 640 Кбит/с)
Продолжительность: 01:47:00
Перевод: Дублированный [iTunes], профессиональный многоголосый [HDRezka Studio]
Cубтитры: Английские

Скриншоты

MediaInfo

General
Unique ID : 207726611454101750821623254903084385207 (0x9C46B0AC00B8A93D9B172F09005183B7)
Complete name : D:\Фильмы\7.Days.in.Entebbe.2018.D.BDRip.1080p.ExKinoRay.mkv
Format : Matroska
Format version : Version 4
File size : 10.7 GiB
Duration : 1 h 47 min
Overall bit rate : 14.3 Mb/s
Movie name : 7 Days in Entebbe 2018 from ExKinoRay
Encoded date : UTC 2018-06-26 10:21:47
Writing application : mkvmerge v7.3.0 ('Nouages') 64bit built on Oct 22 2014 18:53:34
Writing library : libebml v1.3.0 + libmatroska v1.4.1
Video
ID : 1
Format : AVC
Format/Info : Advanced Video Codec
Format profile : High@L4.1
Format settings : CABAC / 5 Ref Frames
Format settings, CABAC : Yes
Format settings, ReFrames : 5 frames
Codec ID : V_MPEG4/ISO/AVC
Duration : 1 h 47 min
Bit rate : 13.1 Mb/s
Width : 1 920 pixels
Height : 804 pixels
Display aspect ratio : 2.40:1
Frame rate mode : Constant
Frame rate : 23.976 (24000/1001) FPS
Color space : YUV
Chroma subsampling : 4:2:0
Bit depth : 8 bits
Scan type : Progressive
Bits/(Pixel*Frame) : 0.355
Stream size : 9.79 GiB (91%)
Writing library : x264 core 148 r2705 3f5ed56
Encoding settings : cabac=1 / ref=5 / deblock=1:-2:-2 / analyse=0x3:0x133 / me=umh / subme=11 / psy=1 / psy_rd=1.05:0.05 / mixed_ref=1 / me_range=32 / chroma_me=1 / trellis=2 / 8x8dct=1 / cqm=0 / deadzone=21,11 / fast_pskip=0 / chroma_qp_offset=-3 / threads=12 / lookahead_threads=2 / sliced_threads=0 / nr=0 / decimate=0 / interlaced=0 / bluray_compat=0 / constrained_intra=0 / bframes=8 / b_pyramid=2 / b_adapt=2 / b_bias=0 / direct=3 / weightb=1 / open_gop=0 / weightp=2 / keyint=240 / keyint_min=23 / scenecut=40 / intra_refresh=0 / rc_lookahead=50 / rc=2pass / mbtree=0 / bitrate=13130 / ratetol=1.0 / qcomp=0.60 / qpmin=0 / qpmax=51 / qpstep=4 / cplxblur=20.0 / qblur=0.5 / vbv_maxrate=50000 / vbv_bufsize=62500 / nal_hrd=none / filler=0 / ip_ratio=1.40 / pb_ratio=1.30 / aq=3:0.80
Language : English
Default : Yes
Forced : No
Audio #1
ID : 2
Format : AC-3
Format/Info : Audio Coding 3
Commercial name : Dolby Digital
Codec ID : A_AC3
Duration : 1 h 46 min
Bit rate mode : Constant
Bit rate : 384 kb/s
Channel(s) : 6 channels
Channel layout : L R C LFE Ls Rs
Sampling rate : 48.0 kHz
Frame rate : 31.250 FPS (1536 SPF)
Bit depth : 16 bits
Compression mode : Lossy
Stream size : 294 MiB (3%)
Title : iTunes
Language : Russian
Service kind : Complete Main
Default : Yes
Forced : Yes
Audio #2
ID : 3
Format : AC-3
Format/Info : Audio Coding 3
Commercial name : Dolby Digital
Codec ID : A_AC3
Duration : 1 h 46 min
Bit rate mode : Constant
Bit rate : 192 kb/s
Channel(s) : 2 channels
Channel layout : L R
Sampling rate : 48.0 kHz
Frame rate : 31.250 FPS (1536 SPF)
Bit depth : 16 bits
Compression mode : Lossy
Stream size : 147 MiB (1%)
Title : MVO [HDRezka Studio]
Language : Russian
Service kind : Complete Main
Default : No
Forced : No
Audio #3
ID : 4
Format : AC-3
Format/Info : Audio Coding 3
Commercial name : Dolby Digital
Codec ID : A_AC3
Duration : 1 h 47 min
Bit rate mode : Constant
Bit rate : 640 kb/s
Channel(s) : 6 channels
Channel layout : L R C LFE Ls Rs
Sampling rate : 48.0 kHz
Frame rate : 31.250 FPS (1536 SPF)
Bit depth : 16 bits
Compression mode : Lossy
Stream size : 490 MiB (4%)
Title : Original
Language : English
Service kind : Complete Main
Default : No
Forced : No
Text
ID : 5
Format : UTF-8
Codec ID : S_TEXT/UTF8
Codec ID/Info : UTF-8 Plain Text
Duration : 1 h 42 min
Bit rate : 44 b/s
Count of elements : 1126
Stream size : 33.5 KiB (0%)
Title : SDH
Language : English
Default : No
Forced : No
Menu
00:00:00.000 : en:00:00:00.000
00:02:32.569 : en:00:02:32.569
00:06:17.669 : en:00:06:17.669
00:12:00.261 : en:00:12:00.261
00:19:00.431 : en:00:19:00.431
00:24:11.575 : en:00:24:11.575
00:28:10.606 : en:00:28:10.606
00:32:43.420 : en:00:32:43.420
00:38:10.413 : en:00:38:10.413
00:44:32.545 : en:00:44:32.545
00:49:31.468 : en:00:49:31.468
00:53:06.016 : en:00:53:06.016
00:58:22.708 : en:00:58:22.708
01:04:04.549 : en:01:04:04.549
01:08:07.625 : en:01:08:07.625
01:16:13.986 : en:01:16:13.986
01:21:11.617 : en:01:21:11.617
01:28:57.999 : en:01:28:57.999
01:37:31.846 : en:01:37:31.846
01:39:09.902 : en:01:39:09.902
Релиз от:
[Profile] [PM]
Display posts:    
Reply to topic

Current time is: 16-Dec 08:05

All times are UTC + 3



You cannot post new topics in this forum
You cannot reply to topics in this forum
You cannot edit your posts in this forum
You cannot delete your posts in this forum
You cannot vote in polls in this forum
You cannot attach files in this forum
You cannot download files in this forum