Мюзикл на льду Татьяны Навки «Аленький цветочек» в Москве (2019) DVB от Generalfilm

Reply to topic
 
Author Message

Abakan2000 ®

Gender: Male

Longevity: 8 months 3 days

Posts: 10

Post 13-Jan-2019 15:46

[Quote]

Аленький цветочек
Год выпуска: 2019
Жанр: Мизикл
Выпущено: Россия, Первый канал
О фильме: Волшебная история о настоящей любви, доброте и истинной красоте по мотивам произведения Сергея Тимофеевича Аксакова будет впервые представлена на льду. В новом шоу прославленной российской чемпионки Татьяны Навки сказочным образом объединятся профессионализм фигуристов мирового уровня, новейшие спецэффекты и сценические решения, а также потрясающая музыка.
Качество: DVB
Видео: MPEG-TS , 2656Кбит/с, 720x576@1047х576
Аудио: MP2, 2 ch, 192 Кбит/с
Продолжительность: 01:13:50
Перевод: Не требуется

Скриншоты


MediaInfo

General
ID : 1 (0x1)
Complete name : E:\ВИДЕО\Музыка\Аленький цветочек-2019.ts
Format : MPEG-TS
File size : 1.55 GiB
Duration : 1 h 13 min
Overall bit rate mode : Variable
Overall bit rate : 2 998 kb/s
Video
ID : 1011 (0x3F3)
Menu ID : 1010 (0x3F2)
Format : AVC
Format/Info : Advanced Video Codec
Format profile : Main@L3
Format settings : CABAC / 3 Ref Frames
Format settings, CABAC : Yes
Format settings, ReFrames : 3 frames
Format settings, GOP : M=4, N=28
Format settings, picture st : Frame
Codec ID : 27
Duration : 1 h 13 min
Bit rate : 2 656 kb/s
Width : 720 pixels
Height : 576 pixels
Display aspect ratio : 16:9
Frame rate : 25.000 FPS
Standard : Component
Color space : YUV
Chroma subsampling : 4:2:0
Bit depth : 8 bits
Scan type : Interlaced
Scan type, store method : Interleaved fields
Scan order : Top Field First
Bits/(Pixel*Frame) : 0.256
Stream size : 1.37 GiB (89%)
Color range : Limited
Color primaries : BT.601 PAL
Transfer characteristics : BT.470 System B/G
Matrix coefficients : BT.470 System B/G
Audio
ID : 1012 (0x3F4)
Menu ID : 1010 (0x3F2)
Format : MPEG Audio
Format version : Version 1
Format profile : Layer 2
Codec ID : 3
Duration : 1 h 13 min
Bit rate mode : Constant
Bit rate : 192 kb/s
Channel(s) : 2 channels
Sampling rate : 48.0 kHz
Frame rate : 41.667 FPS (1152 SPF)
Compression mode : Lossy
Stream size : 101 MiB (6%)
Language : English
Релиз от:
[Profile] [PM]
Display posts:    
Reply to topic

Current time is: 17-Jul 15:18

All times are UTC + 3



You cannot post new topics in this forum
You cannot reply to topics in this forum
You cannot edit your posts in this forum
You cannot delete your posts in this forum
You cannot vote in polls in this forum
You cannot attach files in this forum
You cannot download files in this forum