Агент Джонни Инглиш 3.0 / Johnny English Strikes Again (2018) BDRip 1080p | Лицензия

Reply to topic
 
Author Message

runetzone ®

Gender: Male

Longevity: 11 months 2 days

Posts: 65

Location: Санкт-Петербург

Post 14-Jan-2019 14:43

[Quote]

Агент Джонни Инглиш 3.0 / Johnny English Strikes Again Год выпуска: 2018
Жанр: Боевик, комедия, приключения
Выпущено: Великобритания, Франция, США, Perfect World Pictures, Studio Canal, Universal Pictures
Режиссер: Дэвид Керр
В ролях: Эмма Томпсон, Ольга Куриленко, Роуэн Аткинсон, Джейк Лэси, Бен Миллер, Миранда Хеннесси, Адам Джеймс, Пиппа Беннетт-Уорнер, Ирена Тишина, Джеймс Илс
О фильме: Когда все агенты секретной службы Её Величества внезапно выходят из строя, в игру вступает запасной вариант. Образец английского стиля и любимец роковых красоток; король безвыходных ситуаций и хранитель аналоговых традиций в цифровом мире, агент Джонни Инглиш - боль и гордость британской разведки. Этому парню есть что взбалтывать, и он взболтает не по-детски.

Качество: BDRip 1080p
Видео: MPEG-4 AVC, 10.3 Мбит/с, 1920x804, 23.976 fps
Аудио: Русский (DTS, 6 ch, 768 Кбит/c), (AC3, 6 ch, 448 Кбит/с), английский (DTS, 6 ch, 1509 Кбит/c)
Продолжительность: 01:28:20
Перевод: Дублированный | Лицензия
Cубтитры: Русские, английские

Скриншоты

MediaInfo

General
Unique ID : 169354422334809324616802014638137138238 (0x7F6879AE7FDFBA7BE2B1E2BAEEF3DC3E)
Complete name : D:\Video111\Johnny.English.Strikes.Again.2018.Lic.BDRip.1080p.seleZen.mkv
Format : Matroska
Format version : Version 4
File size : 7.98 GiB
Duration : 1 h 28 min
Overall bit rate : 12.9 Mb/s
Movie name : Johnny English Strikes Again 2018 from селезень
Encoded date : UTC 2019-01-10 18:58:08
Writing application : mkvmerge v29.0.0 ('Like It Or Not') 64-bit
Writing library : libebml v1.3.6 + libmatroska v1.4.9
Video
ID : 1
Format : AVC
Format/Info : Advanced Video Codec
Format profile : High@L4.1
Format settings : CABAC / 5 Ref Frames
Format settings, CABAC : Yes
Format settings, ReFrames : 5 frames
Codec ID : V_MPEG4/ISO/AVC
Duration : 1 h 28 min
Bit rate : 10.3 Mb/s
Width : 1 920 pixels
Height : 804 pixels
Display aspect ratio : 2.40:1
Frame rate mode : Constant
Frame rate : 23.976 (24000/1001) FPS
Color space : YUV
Chroma subsampling : 4:2:0
Bit depth : 8 bits
Scan type : Progressive
Bits/(Pixel*Frame) : 0.277
Stream size : 6.30 GiB (79%)
Title : seleZen
Writing library : x264 core 148 r2705kMod 3f5ed56
Encoding settings : cabac=1 / ref=5 / deblock=1:-2:-2 / analyse=0x3:0x133 / me=umh / subme=11 / psy=1 / fade_compensate=0.00 / psy_rd=1.05:0.05 / mixed_ref=1 / me_range=48 / chroma_me=1 / trellis=2 / 8x8dct=1 / cqm=0 / deadzone=21,11 / fast_pskip=0 / chroma_qp_offset=-3 / threads=12 / lookahead_threads=3 / sliced_threads=0 / nr=0 / decimate=0 / interlaced=0 / bluray_compat=0 / constrained_intra=0 / fgo=0 / bframes=10 / b_pyramid=2 / b_adapt=2 / b_bias=0 / direct=3 / weightb=1 / open_gop=0 / weightp=2 / keyint=240 / keyint_min=23 / scenecut=40 / intra_refresh=0 / rc_lookahead=50 / rc=2pass / mbtree=0 / bitrate=10250 / ratetol=1.0 / qcomp=0.60 / qpmin=0 / qpmax=51 / qpstep=4 / cplxblur=20.0 / qblur=0.5 / vbv_maxrate=50000 / vbv_bufsize=62500 / nal_hrd=none / filler=0 / ip_ratio=1.40 / pb_ratio=1.30 / aq=3:0.80
Language : English
Default : Yes
Forced : No
Audio #1
ID : 2
Format : DTS
Format/Info : Digital Theater Systems
Codec ID : A_DTS
Duration : 1 h 28 min
Bit rate mode : Constant
Bit rate : 768 kb/s
Channel(s) : 6 channels
Channel layout : C L R Ls Rs LFE
Sampling rate : 48.0 kHz
Frame rate : 93.750 FPS (512 SPF)
Bit depth : 24 bits
Compression mode : Lossy
Stream size : 486 MiB (6%)
Title : Dub [License]
Language : Russian
Default : Yes
Forced : Yes
Audio #2
ID : 3
Format : AC-3
Format/Info : Audio Coding 3
Commercial name : Dolby Digital
Codec ID : A_AC3
Duration : 1 h 28 min
Bit rate mode : Constant
Bit rate : 448 kb/s
Channel(s) : 6 channels
Channel layout : L R C LFE Ls Rs
Sampling rate : 48.0 kHz
Frame rate : 31.250 FPS (1536 SPF)
Bit depth : 16 bits
Compression mode : Lossy
Stream size : 284 MiB (3%)
Title : Dub [License]
Language : Russian
Service kind : Complete Main
Default : No
Forced : No
Audio #3
ID : 4
Format : DTS
Format/Info : Digital Theater Systems
Codec ID : A_DTS
Duration : 1 h 28 min
Bit rate mode : Constant
Bit rate : 1 509 kb/s
Channel(s) : 6 channels
Channel layout : C L R Ls Rs LFE
Sampling rate : 48.0 kHz
Frame rate : 93.750 FPS (512 SPF)
Bit depth : 24 bits
Compression mode : Lossy
Stream size : 956 MiB (12%)
Title : Original
Language : English
Default : No
Forced : No
Text #1
ID : 5
Format : UTF-8
Codec ID : S_TEXT/UTF8
Codec ID/Info : UTF-8 Plain Text
Duration : 1 h 27 min
Bit rate : 0 b/s
Count of elements : 15
Stream size : 459 Bytes (0%)
Title : Forced
Language : Russian
Default : Yes
Forced : Yes
Text #2
ID : 6
Format : UTF-8
Codec ID : S_TEXT/UTF8
Codec ID/Info : UTF-8 Plain Text
Duration : 1 h 27 min
Bit rate : 69 b/s
Count of elements : 1007
Stream size : 44.4 KiB (0%)
Title : Full
Language : Russian
Default : No
Forced : No
Text #3
ID : 7
Format : UTF-8
Codec ID : S_TEXT/UTF8
Codec ID/Info : UTF-8 Plain Text
Duration : 1 h 22 min
Bit rate : 56 b/s
Count of elements : 1022
Stream size : 34.3 KiB (0%)
Title : Full
Language : English
Default : No
Forced : No
Menu
00:00:00.000 : :Chapter 01
00:05:06.681 : :Chapter 02
00:09:05.378 : :Chapter 03
00:13:14.794 : :Chapter 04
00:19:22.369 : :Chapter 05
00:21:31.832 : :Chapter 06
00:26:41.975 : :Chapter 07
00:32:31.240 : :Chapter 08
00:34:48.086 : :Chapter 09
00:39:49.428 : :Chapter 10
00:45:49.121 : :Chapter 11
00:51:22.204 : :Chapter 12
00:54:31.851 : :Chapter 13
00:58:58.201 : :Chapter 14
01:02:58.441 : :Chapter 15
01:08:21.597 : :Chapter 16
01:11:40.963 : :Chapter 17
01:15:03.415 : :Chapter 18
01:20:54.808 : :Chapter 19
01:23:52.527 : :Chapter 20
Релиз от:
[Profile] [PM]
Display posts:    
Reply to topic

Current time is: 09-Dec 02:02

All times are UTC + 3



You cannot post new topics in this forum
You cannot reply to topics in this forum
You cannot edit your posts in this forum
You cannot delete your posts in this forum
You cannot vote in polls in this forum
You cannot attach files in this forum
You cannot download files in this forum