Эшер / Asher (2018) BDRip 1080p | HDrezka Studio

Reply to topic
 
Author Message

runetzone ®

Gender: Male

Longevity: 11 months 2 days

Posts: 65

Location: Санкт-Петербург

Post 14-Jan-2019 23:49

[Quote]

Эшер / Asher Год выпуска: 2018
Жанр: Драма, триллер, криминал
Выпущено: США, Wing and a Prayer Pictures, Mensch Productions
Режиссер: Майкл Кейтон-Джонс
В ролях: Фамке Янссен, Рон Перлман, Ричард Дрейфусс, Жаклин Биссет, Питер Фачинелли, Гай Бернет, Блейк Перлман, Марта Миланс, Джей Хайрон, Бобби Дэниэл Родригес
О фильме: Стареющий наемный убийца с богатым послужным списком понимает, что его лучшие годы давно позади, и скоро придётся уйти на покой. Однако, по старой дружбе, он соглашается на последнее прибыльное дело, не осознавая, что переходит дорогу силам, имеющим огромное влияние в криминальном мире.

Качество: BDRip 1080p
Видео: MPEG-4 AVC, 8996 Kбит/с, 1920x800, 23.976 fps
Аудио: Русский (AC3, 2 ch, 192 Кбит/с), английский (DTS, 6 ch, 1509 Кбит/с)
Продолжительность: 01:44:01
Перевод: Профессиональный многоголосый | HDrezka Studio
Cубтитры: Английские

Скриншоты

MediaInfo

General
Unique ID : 226536265698956308449839379746089713072 (0xAA6D4C39FEA21C7CBCD1D4990839BDB0)
Complete name : Asher.2018.BDRip.1080p.mkv
Format : Matroska
Format version : Version 4 / Version 2
File size : 7.77 GiB
Duration : 1 h 44 min
Overall bit rate : 10.7 Mb/s
Encoded date : UTC 2019-01-14 18:50:35
Writing application : mkvmerge v7.1.0 ('Good Love') 64bit built on Jul 27 2014 13:06:55
Writing library : libebml v1.3.0 + libmatroska v1.4.1
Video
ID : 1
Format : AVC
Format/Info : Advanced Video Codec
Format profile : High@L4.1
Format settings, CABAC : Yes
Format settings, RefFrames : 5 frames
Codec ID : V_MPEG4/ISO/AVC
Duration : 1 h 44 min
Bit rate : 8 996 kb/s
Width : 1 920 pixels
Height : 800 pixels
Display aspect ratio : 2.40:1
Frame rate mode : Constant
Frame rate : 23.976 (24000/1001) FPS
Color space : YUV
Chroma subsampling : 4:2:0
Bit depth : 8 bits
Scan type : Progressive
Bits/(Pixel*Frame) : 0.244
Stream size : 6.54 GiB (84%)
Writing library : x264 core 157 r2937 62bdf4f TnP@MTeam Mod
Encoding settings : cabac=1 / ref=5 / deblock=1:-3:-3 / analyse=0x3:0x133 / me=umh / subme=10 / psy=1 / psy_rd=1.05:0.00 / mixed_ref=1 / me_range=32 / chroma_me=1 / trellis=2 / 8x8dct=1 / cqm=0 / deadzone=21,11 / fast_pskip=0 / chroma_qp_offset=-2 / threads=12 / lookahead_threads=2 / sliced_threads=0 / nr=0 / decimate=0 / interlaced=0 / bluray_compat=0 / constrained_intra=0 / bframes=8 / b_pyramid=2 / b_adapt=2 / b_bias=0 / direct=3 / weightb=1 / open_gop=0 / weightp=2 / keyint=250 / keyint_min=24 / scenecut=40 / intra_refresh=0 / rc_lookahead=250 / rc=crf / mbtree=0 / crf=16.5 / qcomp=0.60 / qpmin=0 / qpmax=69 / qpstep=4 / vbv_maxrate=62500 / vbv_bufsize=78125 / crf_max=0.0 / nal_hrd=none / filler=0 / ip_ratio=1.30 / pb_ratio=1.20 / aq=3:0.80
Language : English
Default : Yes
Forced : No
Color range : Limited
Color primaries : BT.709
Matrix coefficients : BT.709
Audio #1
ID : 2
Format : AC-3
Format/Info : Audio Coding 3
Format settings, Endianness : Big
Codec ID : A_AC3
Duration : 1 h 44 min
Bit rate mode : Constant
Bit rate : 192 kb/s
Channel(s) : 2 channels
Channel positions : Front: L R
Sampling rate : 48.0 kHz
Frame rate : 31.250 FPS (1536 SPF)
Bit depth : 16 bits
Compression mode : Lossy
Stream size : 143 MiB (2%)
Title : MVO | HDRezka Studio
Language : Russian
Service kind : Complete Main
Default : Yes
Forced : No
Audio #2
ID : 3
Format : DTS
Format/Info : Digital Theater Systems
Mode : 16
Format settings, Endianness : Big
Codec ID : A_DTS
Duration : 1 h 44 min
Bit rate mode : Constant
Bit rate : 1 509 kb/s
Channel(s) : 6 channels
Channel positions : Front: L C R, Side: L R, LFE
Sampling rate : 48.0 kHz
Frame rate : 93.750 FPS (512 SPF)
Bit depth : 24 bits
Compression mode : Lossy
Stream size : 1.10 GiB (14%)
Language : English
Default : No
Forced : No
[Profile] [PM]
Display posts:    
Reply to topic

Current time is: 09-Dec 02:02

All times are UTC + 3



You cannot post new topics in this forum
You cannot reply to topics in this forum
You cannot edit your posts in this forum
You cannot delete your posts in this forum
You cannot vote in polls in this forum
You cannot attach files in this forum
You cannot download files in this forum