Что? Где? Когда? Дети XXI века [1-3 игра из 3] (2019) HDTV 1080i от GeneralFilm

Reply to topic
 
Author Message

olegka7373 ®

Gender: Male

Longevity: 1 year 10 months

Posts: 364

Location: Россия, Новокузнецк

Post 03-Feb-2019 20:01

[Quote]

Что? Где? Когда? Дети XXI века
Год выпуска: 2019
Жанр: Телевизионная игра, интеллектуальное шоу, познавательный, развлекательный
Выпущено: Россия, Продюсерский центр "ИГРА-ТВ"
Ведущий: Борис Крюк
О фильме: Экспериментальная серия игр "Что? Где? Когда?" с участием школьников. Во время этой серии знатоки клуба "Что? Где? Когда?" перевоплотятся в телезрителей, а знатоками станут школьники - дети XXI века. Будет сыграно три игры. Победителем серии станет команда, которая выиграет с наиболее крупным счётом.
Качество: HDTV (1080i)
Видео: MPEG-TS AVC, ~ 8600 Кбит/с, 1920x1080, 25 кадр/с
Аудио: Русский (AC3, 2 ch, 384 Кбит/с), (MP2, 2 ch, 192 Кбит/с)
Продолжительность: 3 х ~ 01:00:00
Перевод: Не требуется
Субтитры: нет

Скриншоты


MediaInfo

Общее
Идентификатор : 1 (0x1)
Полное имя : D:ЗаписьChto.Gde.Kogda.Deti XXI veka.2019.HDTV(1080i).GeneralFilm1.Chto.Gde.Kogda.Deti XXI veka.2019.HDTV(1080i).GeneralFilm.ts
Формат : MPEG-TS
Размер файла : 4,30 Гбайт
Продолжительность : 1 ч. 3 м.
Режим общего битрейта : Переменный
Общий поток : 9705 Кбит/сек
Видео
Идентификатор : 1904 (0x770)
Идентификатор меню : 5640 (0x1608)
Формат : AVC
Формат/Информация : Advanced Video Codec
Профиль формата : High@L4
Параметр CABAC формата : Да
Параметр ReFrames формата : 3 кадра
Идентификатор кодека : 27
Продолжительность : 1 ч. 3 м.
Битрейт : 8643 Кбит/сек
Ширина : 1920 пикселей
Высота : 1080 пикселей
Соотношение сторон : 16:9
Частота кадров : 25,000 кадров/сек
Стандарт вещания : Component
Цветовое пространство : YUV
Субдискретизация насыщенности : 4:2:0
Битовая глубина : 8 бит
Тип развёртки : Чересстрочная
Метод сохранения типа развёртки : Раздельные поля
Порядок развёртки : Верхнее поле первое
Бит/(Пиксели*Кадры) : 0.167
Размер потока : 3,83 Гбайт (89%)
Цветовой диапазон : Limited
Основные цвета : BT.709
Характеристики трансфера : BT.709
Коэффициенты матрицы : BT.709
Аудио #1
Идентификатор : 2904 (0xB58)
Идентификатор меню : 5640 (0x1608)
Формат : AC-3
Формат/Информация : Audio Coding 3
Расширение режима : CM (complete main)
Параметр Endianness формата : Big
Идентификатор кодека : 6
Продолжительность : 1 ч. 3 м.
Вид битрейта : Постоянный
Битрейт : 384 Кбит/сек
Каналы : 6 каналов
Расположение каналов : Front: L C R, Side: L R, LFE
Частота : 48,0 КГц
Частота кадров : 31,250 кадров/сек (1536 spf)
Битовая глубина : 16 бит
Метод сжатия : С потерями
Задержка видео : -120 мс.
Размер потока : 174 Мбайт (4%)
Язык : Russian
Аудио #2
Идентификатор : 2905 (0xB59)
Идентификатор меню : 5640 (0x1608)
Формат : MPEG Audio
Версия формата : Version 1
Профиль формата : Layer 2
Идентификатор кодека : 3
Продолжительность : 1 ч. 3 м.
Вид битрейта : Постоянный
Битрейт : 192 Кбит/сек
Каналы : 2 канала
Частота : 48,0 КГц
Метод сжатия : С потерями
Задержка видео : -120 мс.
Размер потока : 87,1 Мбайт (2%)
Язык : Russian
Общее
Полное имя : D:ЗаписьChto.Gde.Kogda.Deti XXI veka.2019.HDTV(1080i).GeneralFilmChto.Gde.Kogda.Deti XXI veka.2019.HDTV(1080i).GeneralFilm.torrent
Размер файла : 24,4 Кбайт

Анонс

В первой игре – 21 января - примет участие команда «Школа «Росатома», в составе которой играют школьники из разных городов России, где расположены предприятия Госкорпорации "Росатом".
В составе команды: Елизавета Карпова (г. Тверь), Константин Горшков (г. Удомля), Валерий Вилков и Борис Бакулевский (г. Снежинск), Никита Бондарев и капитан Кирилл Емелин (г. Саров).
Во второй игре - 4 февраля - сыграет команда из Перми. В 2017 году ребята завоевали титул Чемпионов Европы по игре «Что? Где? Когда?» среди школьников 8-9 классов.
В составе команды: Максим Лукин, Александр Луценко, Олег Одинцов, Максим Няшин, Василий Онучин. Капитан – Екатерина Постнова.
В третьей игре – 11 февраля - сыграют школьники из Санкт-Петербурга – Чемпионы России по игре по игре «Что? Где? Когда?» среди учащихся 8-9 классов.
В составе команды: Максим Богословский, Дмитрий Седов, Денис Потехин, Александр Желтов, Илья Фомин. Капитан – Артём Савочкин.
Релиз:
[Profile] [PM]
Display posts:    
Reply to topic

Current time is: 19-Sep 03:35

All times are UTC + 3



You cannot post new topics in this forum
You cannot reply to topics in this forum
You cannot edit your posts in this forum
You cannot delete your posts in this forum
You cannot vote in polls in this forum
You cannot attach files in this forum
You cannot download files in this forum