Опер по вызову [4 сезон: 1-32 серии из 32] (2019) WEB-DLRip-AVC от Files-x

Reply to topic
 
Author Message

Серый1779 ®

Gender: Male

Longevity: 6 months 7 days

Posts: 432

Location: Украина

Post 05-Feb-2019 16:37

[Quote]

Опер по вызову
Год выпуска: 2019
Жанр: Детектив, криминал
Выпущено: Украина, "RunGo Studio"
Режиссер: Заза Буадзе, Денис Тарасов
В ролях: Павел Вишняков, Слава Красовская, Артём Мартынишин, Александр Пожарский, Александр Игнатуша, Валентина Ищенко, Василий Черношкур, Иван Залуский, Дмитрий Гаврилов (II), Ася Белая, Богдан Олейник, Сергей Гаврилюк (II), Владислав Тененбаум, Юлия Чепурко, Вадим Залесский, Виталий Копилец, Юлия Гапчук, Руслан Никоненко, Александр Спирин, Владимир Гладкий, Михаил Федорченко, Александр Мельник (II), Владимир Кокотунов, Александр Дулин, Елена Вознесенская (II), Юрий Кулинич, Григорий Сирота, Юрий Потапенко, Татьяна Лаврушко, Павел Авилов, Евгений Поляков (II), Вячеслав Бабенков (II), Нина Набока, Валерий Гнеушев, Михаил Мерзликин (II)
О фильме: Каждое дело – вызов, каждое преступление – новая «легенда». Но права на ошибку у агентов нет, ведь маньяки и аферисты стали еще более ловкими, и каждое спец задание может закончится потерей для команды. В 4 сезоне все агенты попробуют себя в сложных спецоперациях. Сообразительный, привлекательный и отчаянный оперативник Артем Трофимов опять возьмется за расследование дерзких преступлений (ему придётся прыгать со зданий, и биться, и даже танцевать), вместе с бывшей аферисткой, гениальным хакером и спецназовцем в отставке во главе с руководителем по прозвищу "Дед" они готовы вновь выступить против самых виртуозных игроков криминального мира, распутывая еще больше загадок, тайн сверхсложных и дерзких и крайне опасные преступлений, проникая в мир криминальных сообществ. "Опер 4" - это не просто продолжение, это новая захватывающая история, которая никого не оставит равнодушным...

Качество: WEB-DLRip-AVC
Видео: MPEG-4 AVC, ~ 1600 Кбит/с, 1024x576, 25 кадр/с
Аудио: AC3, 2 ch, 192 Кбит/с
Продолжительность: 32 х ~ 00:46:00
Перевод: Не требуется
Cубтитры: нет

Скриншоты


MediaInfo

General
Unique ID : 201697812867903162580492321004568305476 (0x97BD95F3D75615ED9EDD86DC1F91DF44)
Complete name : F:\Опер по вызову.s04.(2019).WEB-DLRip.(AVC).Files-x\01.Опер по вызову.S04.(2019).WEB-DLRip.(AVC).by.Серый1779.Files-x.mkv
Format : Matroska
Format version : Version 2
File size : 579 MiB
Duration : 45 min 7 s
Overall bit rate : 1 794 kb/s
Encoded date : UTC 2019-02-06 21:24:55
Writing application : mkvmerge v7.8.0 ('River Man') 32bit built on Apr 3 2015 12:11:22
Writing library : libebml v1.3.1 + libmatroska v1.4.2
Video
ID : 1
Format : AVC
Format/Info : Advanced Video Codec
Format profile : High@L4.1
Format settings : CABAC / 9 Ref Frames
Format settings, CABAC : Yes
Format settings, RefFrames : 9 frames
Codec ID : V_MPEG4/ISO/AVC
Duration : 45 min 7 s
Bit rate : 1 600 kb/s
Width : 1 024 pixels
Height : 576 pixels
Display aspect ratio : 16:9
Frame rate mode : Constant
Frame rate : 25.000 FPS
Color space : YUV
Chroma subsampling : 4:2:0
Bit depth : 8 bits
Scan type : Progressive
Bits/(Pixel*Frame) : 0.109
Stream size : 505 MiB (87%)
Writing library : x264 core 146 r2538 121396c
Encoding settings : cabac=1 / ref=9 / deblock=1:-2:-1 / analyse=0x3:0x133 / me=umh / subme=9 / psy=1 / psy_rd=1.00:0.15 / mixed_ref=1 / me_range=32 / chroma_me=1 / trellis=2 / 8x8dct=1 / cqm=0 / deadzone=21,11 / fast_pskip=0 / chroma_qp_offset=-3 / threads=18 / lookahead_threads=3 / sliced_threads=0 / nr=0 / decimate=1 / interlaced=0 / bluray_compat=0 / constrained_intra=0 / bframes=9 / b_pyramid=2 / b_adapt=2 / b_bias=0 / direct=1 / weightb=1 / open_gop=0 / weightp=2 / keyint=250 / keyint_min=25 / scenecut=40 / intra_refresh=0 / rc=2pass / mbtree=0 / bitrate=1600 / ratetol=1.0 / qcomp=0.60 / qpmin=0 / qpmax=69 / qpstep=4 / cplxblur=20.0 / qblur=0.5 / ip_ratio=1.40 / pb_ratio=1.30 / aq=2:1.00
Default : Yes
Forced : No
Color range : Limited
Color primaries : BT.709
Transfer characteristics : BT.709
Matrix coefficients : BT.709
Audio
ID : 2
Format : AC-3
Format/Info : Audio Coding 3
Format settings, Endianness : Big
Codec ID : A_AC3
Duration : 45 min 7 s
Bit rate mode : Constant
Bit rate : 192 kb/s
Channel(s) : 2 channels
Channel positions : Front: L R
Sampling rate : 48.0 kHz
Frame rate : 31.250 FPS (1536 SPF)
Bit depth : 16 bits
Compression mode : Lossy
Stream size : 62.0 MiB (11%)
Service kind : Complete Main
Default : Yes
Forced : No
Релиз от:


Last edited by Серый1779 on 2019-03-29 01:42; edited 34 times in total
[Profile] [PM]

Серый1779 ®

Gender: Male

Longevity: 6 months 7 days

Posts: 432

Location: Украина

Post 07-Feb-2019 00:36 (after 1 day 7 hours)

[Quote]

Замена файлов на файлы без ЛОГО канала.
[Profile] [PM]
Display posts:    
Reply to topic

Current time is: 20-May 11:35

All times are UTC + 3



You cannot post new topics in this forum
You cannot reply to topics in this forum
You cannot edit your posts in this forum
You cannot delete your posts in this forum
You cannot vote in polls in this forum
You cannot attach files in this forum
You cannot download files in this forum