Две девицы на мели [1-9 серии] (2019) WEBRip от Files-x

Ответить на тему
 
Автор Сообщение

bond74 ®

Пол: Мужской

Стаж: 4 месяца 4 дня

Сообщений: 263

Создавать темы 12-Мар-2019 03:25

[Цитировать]

Две девицы на мели Год выпуска: 2019
Жанр: Комедия, ситком, юмор
Выпущено: Россия, телеканал ПЯТНИЦА
Режиссер: Константин Смирнов
В ролях: Ольга Картункова, Алевтина Тукан, Владимир Сычёв, Арман Навасардян, Наталья Бочкарёва, Виктор Бычков, Никита Дювбанов, Гоша Куценко
О фильме: Казалось бы, что общего между провинциалкой Олей и дочерью миллиардера Марго? Они обе хотят заработать много денег! Оля – приезжая простушка, которая едва сводит концы с концами. Марго – девушка из высшего общества, внезапно лишившаяся своего статуса и состояния. По иронии судьбы она вынуждена устроиться официанткой в кафе, где работает Оля. Вместе девушки начинают подумывать о своем прибыльном бизнесе. Тем более, что почти всё для этого у них есть. Всё, кроме денег. Но на одни чаевые дело не откроешь..
Качество: WEBRip
Видео: XviD, ~ 1600 Кбит/с, 720x400, 25 кадр/с
Аудио: AC3, 2 ch, 192 Кбит/с
Продолжительность: 9 x ~ 00:25:00
Перевод: Не требуется
Субтитры: нет

Скриншоты

MediaInfo

General
Complete name : C:\Users\user\Downloads\Video\01. Две девицы на мели.(2019).WEB-DLRip. Files-x.avi
Format : AVI
Format/Info : Audio Video Interleave
File size : 308 MiB
Duration : 23mn 52s
Overall bit rate : 1 802 Kbps
Writing application : VirtualDubMod 1.5.10.3 | www.virtualdub-fr.org || (build 2550/release)
Writing library : VirtualDubMod build 2550/release
Video
ID : 0
Format : MPEG-4 Visual
Format profile : Advanced Simple@L5
Format settings, BVOP : 1
Format settings, QPel : No
Format settings, GMC : No warppoints
Format settings, Matrix : Custom
Codec ID : XVID
Codec ID/Hint : XviD
Duration : 23mn 52s
Bit rate : 1 600 Kbps
Width : 720 pixels
Height : 400 pixels
Display aspect ratio : 16:9
Frame rate : 25.000 fps
Color space : YUV
Chroma subsampling : 4:2:0
Bit depth : 8 bits
Scan type : Progressive
Compression mode : Lossy
Bits/(Pixel*Frame) : 0.222
Stream size : 273 MiB (89%)
Writing library : XviD 73
Audio
ID : 1
Format : AC-3
Format/Info : Audio Coding 3
Mode extension : CM (complete main)
Codec ID : 2000
Duration : 23mn 52s
Bit rate mode : Constant
Bit rate : 192 Kbps
Channel(s) : 2 channels
Channel positions : Front: L R
Sampling rate : 48.0 KHz
Bit depth : 16 bits
Compression mode : Lossy
Stream size : 32.8 MiB (11%)
Alignment : Split accross interleaves
Interleave, duration : 40 ms (1.00 video frame)
Interleave, preload duration : 500 ms
Релиз от:

Релиз подготовлен R.G.Files-x

[Профиль] [ЛС]
Показать сообщения:    
Ответить на тему

Текущее время: 18-Мар 23:08

Часовой пояс: UTC + 3



Вы не можете начинать темы
Вы не можете отвечать на сообщения
Вы не можете редактировать свои сообщения
Вы не можете удалять свои сообщения
Вы не можете голосовать в опросах
Вы не можете прикреплять файлы к сообщениям
Вы не можете скачивать файлы