Домовой (2019) WEB-DLRip от GeneralFilm | iTunes

Reply to topic
 
Author Message

vsobbol ®

Gender: Male

Longevity: 8 months 1 day

Posts: 236

Location: Донецк

Post 25-May-2019 13:04

[Quote]

Домовой
Год выпуска: 2019
Жанр: Семейный, фэнтези, комедия
Выпущено: Россия, «Трио Фильм»
Режиссер: Евгений Бедарев
В ролях: Сергей Чирков, Екатерина Гусева, Александра Политик, Ольга Остроумова-Гутшмидт, Павел Деревянко, Юлия Сулес, Татьяна Орлова, Сергей Рубеко, Дмитрий Белоцерковский, Дмитрий Бедарев
О фильме: В обычном и суетливом городе Москве есть необычный Дом, обросший сотнями тайн и загадок. В этом доме есть странная квартира, в которой еще надолго не задержался ни один жилец…И лишь тогда, когда в эту «милую» квартиру заезжает самостоятельная мама с очаровательной 8-летней дочерью Алиной, новые жильцы узнают, что жилплощадь их — непростая, а живет в ней самый настоящий Домовой. Только вот хранитель очага уже давно обиделся на весь род человеческий и сделает все вообразимые гадости, только бы остаться одному в злополучной квартире. Но всё меняется, когда Домовому бросает вызов злая колдунь

Качество: WEB-DLRip
Видео: XviD build 73, 704x272 (2.59:1), 23.976 fps, 874 Kbps (0.190 bit/pixel)
Аудио: 48.0 kHz, MP3 2ch, 128 kbps
Продолжительность: 01:43:11
Перевод / Озвучка: Не требуется [Русский]
Cубтитры: нет

Скриншоты

MediaInfo

General
Complete name : D:\Razdachi\Domovoj.2019.WEB-DLRip.GeneralFilm.avi
Format : AVI
Format/Info : Audio Video Interleave
File size : 746 MiB
Duration : 1 h 43 min
Overall bit rate : 1 011 kb/s
Writing application : VirtualDubMod 1.5.10.3 | www.virtualdub-fr.org || (build 2550/release)
Writing library : VirtualDubMod build 2550/release
Video
ID : 0
Format : MPEG-4 Visual
Format profile : Advanced Simple@L5
Format settings : BVOP1 / Custom Matrix
Format settings, BVOP : 1
Format settings, QPel : No
Format settings, GMC : No warppoints
Format settings, Matrix : Custom
Codec ID : XVID
Codec ID/Hint : XviD
Duration : 1 h 43 min
Bit rate : 874 kb/s
Width : 704 pixels
Height : 272 pixels
Display aspect ratio : 2.588
Frame rate : 23.976 (24000/1001) FPS
Color space : YUV
Chroma subsampling : 4:2:0
Bit depth : 8 bits
Scan type : Progressive
Compression mode : Lossy
Bits/(Pixel*Frame) : 0.190
Stream size : 645 MiB (86%)
Writing library : XviD 73
Audio
ID : 1
Format : MPEG Audio
Format version : Version 1
Format profile : Layer 3
Codec ID : 55
Codec ID/Hint : MP3
Duration : 1 h 43 min
Bit rate mode : Constant
Bit rate : 128 kb/s
Channel(s) : 2 channels
Sampling rate : 48.0 kHz
Frame rate : 41.667 FPS (1152 SPF)
Compression mode : Lossy
Stream size : 94.5 MiB (13%)
Alignment : Aligned on interleaves
Interleave, duration : 42 ms (1.00 video frame)
Interleave, preload duratio : 504 ms
Writing library : LAME3.99r
Encoding settings : -m s -V 4 -q 2 -lowpass 17 -b 128
Релиз от:
[Profile] [PM]
Display posts:    
Reply to topic

Current time is: 17-Jul 15:25

All times are UTC + 3



You cannot post new topics in this forum
You cannot reply to topics in this forum
You cannot edit your posts in this forum
You cannot delete your posts in this forum
You cannot vote in polls in this forum
You cannot attach files in this forum
You cannot download files in this forum