Великолепная пятерка [1-32 серии из 32] (2019) WEBRip от Files-x

Reply to topic
 
Author Message

bond74 ®

Gender: Male

Longevity: 10 months 1 day

Posts: 628

Post 28-May-2019 13:19

[Quote]

Великолепная пятерка Год выпуска: 2019
Жанр: Детектив, драма
Выпущено: Россия, «Триикс Медиа» по заказу Пятого канала
Режиссер: Сергей Полуянов
В ролях: Павел Григорьев, Андрей Горбачёв, Алексей Красноцветов, Нодар Джанелидзе, Константин Гришанов, Егор Кутенков, Екатерина Проскурина, Евгения Любимова, Олеся Бережная, Анна Лутцева, Елизавета Ковалёва, Анна Щетинина, Наталья Мызникова, Вячеслав Аркунов, Глафира Козулина
О фильме:О буднях оперов «убойного» отдела Петровского РОВД Петербурга. Пятёрка — по количеству сотрудников. Майор Павел Шапошников, капитаны Дмитрий Красавченко и Тимур Бубнов, старший лейтенант Антон Ветров и лейтенант Владимир Кузьмин. Пять разных характеров, которые сплотил их командир, подполковник Андрей Голованов — человек с хорошим чувством юмора и богатым прошлым. Он еще помнит, когда в Петербурге были улицы разбитых фонарей. Время изменилось: милиция стала полицией, город преобразился, но человеческие страсти по-прежнему кипят вовсю. Месть, зависть, страх, любострастие, корысть толкают одних на преступления, а честь, совесть, справедливость и смелость заставляют других противостоять злу. Герои «великолепной пятёрки» наказывают зло ежедневно. Удивительно, но в этой рутине у них остается время на любовь, дружбу и юмор.

Качество: WEBRip
Видео: XviD, ~ 1600 Кбит/с, 720x400, 25 кадр/с
Аудио: AC3, 2 ch, 192 Кбит/с
Продолжительность: 32 х ~ 00:40:00
Перевод: Не требуется
Субтитры: нет

Скриншоты

MediaInfo

General
Complete name : C:\Users\user\Downloads\Video\01. Великолепная Пятерка.2019. WEB-DLRip. Files-x.avi
Format : AVI
Format/Info : Audio Video Interleave
File size : 515 MiB
Duration : 39mn 58s
Overall bit rate : 1 803 Kbps
Writing application : VirtualDubMod 1.5.10.3 | www.virtualdub-fr.org || (build 2550/release)
Writing library : VirtualDubMod build 2550/release
Video
ID : 0
Format : MPEG-4 Visual
Format profile : Advanced Simple@L5
Format settings, BVOP : 1
Format settings, QPel : No
Format settings, GMC : No warppoints
Format settings, Matrix : Custom
Codec ID : XVID
Codec ID/Hint : XviD
Duration : 39mn 58s
Bit rate : 1 601 Kbps
Width : 720 pixels
Height : 400 pixels
Display aspect ratio : 16:9
Frame rate : 25.000 fps
Color space : YUV
Chroma subsampling : 4:2:0
Bit depth : 8 bits
Scan type : Progressive
Compression mode : Lossy
Bits/(Pixel*Frame) : 0.222
Stream size : 458 MiB (89%)
Writing library : XviD 73
Audio
ID : 1
Format : AC-3
Format/Info : Audio Coding 3
Mode extension : CM (complete main)
Codec ID : 2000
Duration : 39mn 58s
Bit rate mode : Constant
Bit rate : 192 Kbps
Channel(s) : 2 channels
Channel positions : Front: L R
Sampling rate : 48.0 KHz
Bit depth : 16 bits
Compression mode : Lossy
Stream size : 54.9 MiB (11%)
Alignment : Split accross interleaves
Interleave, duration : 40 ms (1.00 video frame)
Interleave, preload duration : 500 ms
Релиз от:
[Profile] [PM]
Display posts:    
Reply to topic

Current time is: 16-Sep 11:53

All times are UTC + 3



You cannot post new topics in this forum
You cannot reply to topics in this forum
You cannot edit your posts in this forum
You cannot delete your posts in this forum
You cannot vote in polls in this forum
You cannot attach files in this forum
You cannot download files in this forum