Великолепная пятерка [1-3 сезон: 1-74 серии из 96] (2019) WEBRip-AVC от GeneralFilm

Reply to topic
 
Author Message

olegka7373 ®

Gender: Male

Longevity: 1 year 8 months

Posts: 341

Location: Россия, Новокузнецк

Post 28-May-2019 14:58

[Quote]

Великолепная пятерка
Год выпуска: 2019
Жанр: Детектив, драма
Выпущено: Россия, «Триикс Медиа» по заказу Пятого канала
Режиссер: Сергей Полуянов
В ролях: Павел Григорьев, Андрей Горбачёв, Алексей Красноцветов, Нодар Джанелидзе, Константин Гришанов, Егор Кутенков, Наталья Бурмистрова (II), Валентина Казанина, Александр Удальцов, Татьяна Мишина, Лидия Шевченко, Александр Загребин, Игорь Ключников, Евгения Любимова, Анна Лутцева, Дмитрий Савчук, Олеся Бережная, Сергей Шоколов, Екатерина Проскурина, Елизавета Ковалёва, Анна Щетинина, Наталья Мызникова, Вячеслав Аркунов, Глафира Козулина, Илья Катунцев, Яна Флоринская, Наталья Круглова, Алёна Баркова, Дарья Кукарских, Александр Мосолов, Михаил Титоренко, Валерия Ледовских, Татьяна Ющина, Виктория Плоп, Павел Поляков (III), Михаил Бракоренко, Жанна Куприянова, Станислав Максимов, Евгений Волошин, Евгений Добряков
О фильме: Детективный сериал о буднях оперов «убойного» отдела Петровского РОВД Петербурга. Пятерка – потому что оперов пять. Майор Павел Шапошников, капитаны Дмитрий Красавченко и Тимур Бубнов, старлей Антон Ветров и лейтенант Владимир Кузьмин. Пять разных характеров, которые сплотил их командир, подполковник Андрей Голованов. Человек с большим юмором и богатым прошлым. Он еще помнит, когда в Петербурге были улицы разбитых фонарей. Время изменилось, милиция стала полицией, город преобразился, но человеческие страсти по-прежнему кипят вовсю. Месть, зависть, страх, любострастие, корысть толкают одних на преступления, а честь, совесть, справедливость и смелость заставляют других противостоять злу. Герои «Великолепной Пятерки» наказывают зло ежедневно. Удивительно, но в этой рутине у них остается время на любовь, дружбу и юмор.

Качество: WEBRip-AVC
Видео: MPEG-4 AVC, ~ 1550 Кбит/с, 720x400, 25 кадр/с
Аудио: Русский (AC3, 2 ch, 192 Кбит/с)
Продолжительность: 74 х ~ 00:40:00
Перевод: Не требуется
Субтитры: нет

Скриншоты


MediaInfo

Общее
Уникальный идентификатор : 217515661021351916678607510192348108815 (0xA3A3FE140C7E9A908FD7BD6F0AAE980F)
Полное имя : D:Velikolepnaja Pjaterka.WEBRip.(AVC).GeneralFilm1.Velikolepnaja Pjaterka.WEBRip.(AVC).GeneralFilm.mkv
Формат : Matroska
Версия формата : Version 2
Размер файла : 498 Мбайт
Продолжительность : 39 м. 58 с.
Общий поток : 1742 Кбит/сек
Дата кодирования : UTC 2019-05-28 11:46:33
Программа кодирования : mkvmerge v7.8.0 ('River Man') 32bit built on Apr 3 2015 12:11:22
Библиотека кодирования : libebml v1.3.1 + libmatroska v1.4.2
Видео
Идентификатор : 1
Формат : AVC
Формат/Информация : Advanced Video Codec
Профиль формата : High@L4.1
Параметр CABAC формата : Да
Параметр ReFrames формата : 9 кадров
Идентификатор кодека : V_MPEG4/ISO/AVC
Продолжительность : 39 м. 58 с.
Битрейт : 1550 Кбит/сек
Ширина : 720 пикселей
Высота : 400 пикселей
Соотношение сторон : 16:9
Режим частоты кадров : Постоянный
Частота кадров : 25,000 кадров/сек
Цветовое пространство : YUV
Субдискретизация насыщенности : 4:2:0
Битовая глубина : 8 бит
Тип развёртки : Прогрессивная
Бит/(Пиксели*Кадры) : 0.215
Размер потока : 433 Мбайт (87%)
Библиотека кодирования : x264 core 146 r2538 121396c
Настройки программы : cabac=1 / ref=9 / deblock=1:-2:-1 / analyse=0x3:0x113 / me=umh / subme=9 / psy=1 / psy_rd=1.00:0.15 / mixed_ref=1 / me_range=32 / chroma_me=1 / trellis=2 / 8x8dct=1 / cqm=0 / deadzone=21,11 / fast_pskip=0 / chroma_qp_offset=-3 / threads=18 / lookahead_threads=3 / sliced_threads=0 / nr=0 / decimate=1 / interlaced=0 / bluray_compat=0 / constrained_intra=0 / bframes=9 / b_pyramid=2 / b_adapt=2 / b_bias=0 / direct=3 / weightb=1 / open_gop=0 / weightp=2 / keyint=250 / keyint_min=25 / scenecut=40 / intra_refresh=0 / rc_lookahead=40 / rc=2pass / mbtree=0 / bitrate=1550 / ratetol=1.0 / qcomp=0.60 / qpmin=0 / qpmax=69 / qpstep=4 / cplxblur=20.0 / qblur=0.5 / vbv_maxrate=14000 / vbv_bufsize=14000 / nal_hrd=none / filler=0 / ip_ratio=1.40 / pb_ratio=1.30 / aq=2:1.00
Default : Да
Forced : Нет
Цветовой диапазон : Limited
Основные цвета : BT.709
Характеристики трансфера : BT.709
Коэффициенты матрицы : BT.709
Аудио
Идентификатор : 2
Формат : AC-3
Формат/Информация : Audio Coding 3
Расширение режима : CM (complete main)
Параметр Endianness формата : Big
Идентификатор кодека : A_AC3
Продолжительность : 39 м. 58 с.
Вид битрейта : Постоянный
Битрейт : 192 Кбит/сек
Каналы : 2 канала
Расположение каналов : Front: L R
Частота : 44,1 КГц
Частота кадров : 28,711 кадров/сек (1536 spf)
Битовая глубина : 16 бит
Метод сжатия : С потерями
Размер потока : 54,9 Мбайт (11%)
Default : Да
Forced : Нет
Общее
Полное имя : D:Velikolepnaja Pjaterka.WEBRip.(AVC).GeneralFilmVelikolepnaja Pjaterka.WEBRip.(AVC).GeneralFilm.torrent
Размер файла : 19,9 Кбайт

Внимание! Раздача ведётся путём добавления новых серий

Раздача ведётся путём добавления новых серий, при каждом добавлении создаётся новый торрент. Чтобы начать докачку новой серии, пользователям необходимо сделать следующее:
- Остановить скачивание.
- Удалить старый торрент у себя из клиента (старые серии удалять не надо).
- Скачать новый торрент и запустить его у себя в клиенте вместо старого, при этом указать клиенту путь в старую папку куда и должно происходить скачивание новых серий.
Ваш клиент при этом должен произвести хеширование (проверку) старой папки (если не производит сам - помогите ему сделать это), и будет докачивать только те серии которых у вас ещё нет. Старые серии при этом не удаляются, а продолжают раздаваться!
Если вы уже удалили старые серии, то предотвратить повторную закачку старых серий можно, отжав галочку в соответствующих местах при запуске нового торрента. По возможности, желательно не удалять старые серии как можно дольше, чтобы релизер не столько продолжал раздавать старые серии, а смог сконцентрироваться на новых.
Релиз:


Last edited by olegka7373 on 2020-04-12 03:40; edited 34 times in total
[Profile] [PM]
Display posts:    
Reply to topic

Current time is: 13-Aug 10:52

All times are UTC + 3



You cannot post new topics in this forum
You cannot reply to topics in this forum
You cannot edit your posts in this forum
You cannot delete your posts in this forum
You cannot vote in polls in this forum
You cannot attach files in this forum
You cannot download files in this forum