Смотритель маяка [1-12 серии из 12] (2018) WEBRip от Files-x

Reply to topic
 
Author Message

papa1951deda ®

Gender: Male

Longevity: 7 months 5 days

Posts: 256

Location: Казахстан

Post 12-Jun-2019 14:28

[Quote]

Смотритель маяка Год выпуска: 2018
Жанр: Детектив, шпионский фильм
Выпущено: Россия, Киностудия КИТ
Режиссер: Павел Дроздов
В ролях: Егор Бероев, Максим Дрозд, Екатерина Ванчугова, Виктор Тереля, Александра Богданова, Игорь Хрипунов, Василий Мищенко, Константин Снегов, Игорь Климов, Константин Адаев, Игорь Лебедев, Александр Волженский, Дмитрий Харатьян, Роман Пылаев, Михаил Сопов, Александр Богданов (II), Александр Коваль (IV), Вадим Цаллати, Алексей Марков, Вячеслав Гостищев, Сергей Голотвин, Юрий Алехин, А. Василенко, Алёна Гудкова, Роман Гайдамак, Ольга Сопова, Екатерина Архарова
О фильме: Накануне первой мировой войны, русской контрразведке становится известно о предстоящей крупной диверсии в Крыму. Для её осуществления, на территорию России тайно проникает германский шпион, который должен заминировать Севастопольскую бухту, уничтожить главные силы русского флота и дать возможность высадке немецко-турецкого десанта. Для выполнения задания он использует завербованных русских из самых разных слоев — от офицеров до уголовников. Один из них, наш главный герой Арсений Седов, становится другом шпиона. Враг не подозревает, что Арсений на самом деле является разведчиком Генерального Штаба.
Качество: WEBRip
Видео: XviD, ~ 1 600 Кбит/с, 720x304, 25 кадр/с
Аудио: AC3, 2 ch, 192 Кбит/с
Продолжительность: 12 x ~ 00:48:21
Перевод: Не требуется [Русский]
Cубтитры: нет

Скриншоты

MediaInfo

General
Complete name : H:\fiiles x\Смотритель маяка. 2019. WEB-DLRip. Files-x\01. Смотритель маяка. (2018).WEBRip. Files-x.avi
Format : AVI
Format/Info : Audio Video Interleave
File size : 623 MiB
Duration : 48mn 21s
Overall bit rate : 1 801 Kbps
Writing application : VirtualDubMod 1.5.10.3 | www.virtualdub-fr.org || (build 2550/release)
Writing library : VirtualDubMod build 2550/release
Video
ID : 0
Format : MPEG-4 Visual
Format profile : Advanced Simple@L5
Format settings, BVOP : 1
Format settings, QPel : No
Format settings, GMC : No warppoints
Format settings, Matrix : Custom
Codec ID : XVID
Codec ID/Hint : XviD
Duration : 48mn 21s
Bit rate : 1 600 Kbps
Width : 720 pixels
Height : 304 pixels
Display aspect ratio : 2.35:1
Frame rate : 25.000 fps
Color space : YUV
Chroma subsampling : 4:2:0
Bit depth : 8 bits
Scan type : Progressive
Compression mode : Lossy
Bits/(Pixel*Frame) : 0.292
Stream size : 553 MiB (89%)
Writing library : XviD 73
Audio
ID : 1
Format : AC-3
Format/Info : Audio Coding 3
Mode extension : CM (complete main)
Codec ID : 2000
Duration : 48mn 21s
Bit rate mode : Constant
Bit rate : 192 Kbps
Channel(s) : 2 channels
Channel positions : Front: L R
Sampling rate : 48.0 KHz
Bit depth : 16 bits
Compression mode : Lossy
Stream size : 66.4 MiB (11%)
Alignment : Split accross interleaves
Interleave, duration : 40 ms (1.00 video frame)
Interleave, preload duration : 500 ms
Релиз от:
[Profile] [PM]
Display posts:    
Reply to topic

Current time is: 26-Jun 00:33

All times are UTC + 3



You cannot post new topics in this forum
You cannot reply to topics in this forum
You cannot edit your posts in this forum
You cannot delete your posts in this forum
You cannot vote in polls in this forum
You cannot attach files in this forum
You cannot download files in this forum