Ведьма [1-16 серии из 16] (2019) HDTV 1080p от GeneralFilm

Reply to topic
 
Author Message

White Smoke ®

Gender: Male

Longevity: 8 months 8 days

Posts: 71

Post 18-Jun-2019 15:08

[Quote]

Ведьма Год выпуска: 2019
Жанр: Мелодрама
Выпущено: Россия Pro-TV Production
Режиссер: Александр Касаткин
В ролях: Анастасия Стежко, Илья Акинтьев, Глафира Тарханова, Дмитрий Лабуш, Елена Дробышева, Борис Смолкин, Андрей Барило, Валерий Афанасьев, Ольга Гришина, Мария Тарасова (II)
О фильме: Невероятные события происходят в глухой деревне. Один тревожный день меняет судьбы всех её жителей. Все началось с появления таинственной незнакомки. Кузнец Роман спасает тонущую в реке девушку. Девушка не помнит ничего о себе и своем прошлом. Кто она? Русалка, призрак, прекрасный ангел или может быть… ведьма? По деревне начинают распространяться слухи о том, что в доме Романа завелась нечистая сила.
Качество: HDTV 1080p
Видео: AVC, 1920x1080 (16:9), 25.000 fps, 7 051 Kbps (0.136 bit/pixel)
Аудио: AC3 / 2.0 / 48.0 kHz / 192 kbps
Продолжительность: ~ 00:51:22
Перевод: Не требуется
Субтитры: Отсутствуют

Скриншоты





MediaInfo

General
Unique ID : 202566546025243731438487889606640914801 (0x9864E5CDD6E82EE4975864413867D171)
Complete name : E:\Запись с тв\Vedma 2019 HDTV 1080p.R.G.Generalfilm\Vedma.s01.e01.2018.HDTV 1080p.by.White Smoke.R.G.Generalfilm.mkv
Format : Matroska
Format version : Version 4 / Version 2
File size : 2.59 GiB
Duration : 51 min 22 s
Overall bit rate mode : Constant
Overall bit rate : 7 227 kb/s
Movie name : Vedma.s01.e01.2018.HDTV 1080p.by.White Smoke.R.G.Generalfilm
Encoded date : UTC 2019-06-18 10:32:55
Writing application : mkvmerge v6.8.0 ('Theme for Great Cities') 64bit built on Mar 2 2014 21:34:26
Writing library : libebml v1.3.0 + libmatroska v1.4.1
Cover : Yes
Attachments : cover.jpg
Video
ID : 1
Format : AVC
Format/Info : Advanced Video Codec
Format profile : High@L4.1
Format settings : CABAC / 3 Ref Frames
Format settings, CABAC : Yes
Format settings, ReFrames : 3 frames
Codec ID : V_MPEG4/ISO/AVC
Duration : 51 min 22 s
Bit rate mode : Constant
Bit rate : 7 051 kb/s
Width : 1 920 pixels
Height : 1 080 pixels
Display aspect ratio : 16:9
Frame rate mode : Constant
Frame rate : 25.000 FPS
Standard : PAL
Color space : YUV
Chroma subsampling : 4:2:0
Bit depth : 8 bits
Scan type : Progressive
Bits/(Pixel*Frame) : 0.136
Stream size : 2.47 GiB (95%)
Default : Yes
Forced : No
Color range : Limited
Color primaries : BT.709
Transfer characteristics : BT.709
Matrix coefficients : BT.709
Audio
ID : 2
Format : AC-3
Format/Info : Audio Coding 3
Commercial name : Dolby Digital
Codec ID : A_AC3
Duration : 51 min 22 s
Bit rate mode : Constant
Bit rate : 192 kb/s
Channel(s) : 2 channels
Channel layout : L R
Sampling rate : 48.0 kHz
Frame rate : 31.250 FPS (1536 SPF)
Bit depth : 16 bits
Compression mode : Lossy
Stream size : 70.5 MiB (3%)
Service kind : Complete Main
Default : Yes
Forced : No
Релиз от:
[Profile] [PM]
Display posts:    
Reply to topic

Current time is: 21-Jul 12:27

All times are UTC + 3



You cannot post new topics in this forum
You cannot reply to topics in this forum
You cannot edit your posts in this forum
You cannot delete your posts in this forum
You cannot vote in polls in this forum
You cannot attach files in this forum
You cannot download files in this forum