Сёстры [1-20 серии из 20] (2021) WEBRip-AVC от Generalfilm | КПК

Reply to topic
 
Author Message

GORGIK ®

Gender: Male

Longevity: 5 years 6 months

Posts: 1532

Location: СССР

Post 09-Feb-2022 10:10

[Quote]

Сёстры Год выпуска: 2021
Жанр: Комедия
Выпущено: Россия, Кинокомпания "START Studio"
Режиссер: Илья Силаев
В ролях: Лина Миримская, Анна Котова, Ангелина Стречина, Антон Филипенко, Николай Шрайбер, Янина Студилина, Александр Обласов, Артём Ткаченко, Александра Киселёва (II), Дмитрий Тополь, Екатерина Шмакова, Виктор Конухин, Тимур Боканча, Вадим Ракитин, Александр Штендлер, Андрей Мартынов (IV), Маша Лобанова, Георгий Дронов, Анна Шепелева, Дария Гомес, Моряна Анттонен-Шестакова
О фильме: История трех женщин, которые вместе вынуждены управлять автосервисом, доставшимся им в наследство после смерти отца. Когда-то он своим поведением разделил дочерей и сделал их чужими людьми. Теперь его провинциальный автобизнес должен сплотить поссорившихся сестер. Ольге, Маше и Ирине предстоит руководить коллективом из сорока мужчин, попутно разрешая накопившиеся за годы противоречия. Усложняет задачу то, что сестры максимально непохожи друг на друга: Ирина — московская бизнес-леди, selfmade woman; Ольга — непрактичная учительница из Ртищево, воздушная и не от мира сего; Маша — парикмахер из Саратова, мечтающая заработать много денег, но вынужденная жить с мужем-алкоголиком.

Качество: WEBRip | КПК
Видео: MPEG-4 AVC (x264), 640x272, ~500 kbps, 25.000 fps
Аудио: AAC LC, 48.0 KHz, 2 ch, 128 Kbps
Продолжительность: 20 х ~ 00:24:00
Перевод / Озвучка: Не требуется [Русский]
Cубтитры: нет

Скриншоты


MediaInfo

Complete name : F:\КИНО\Syostry.S01.2021.WEBRip-AVC.KPK.GF\Syostry.s01e03.2021.WEBRip-AVC.KPK.GF.mp4
Format : MPEG-4
Codec ID : M4V (isom/iso2/avc1)
File size : 111 MiB
Duration : 24 min 22 s
Overall bit rate mode : Variable
Overall bit rate : 634 kb/s
Writing application : Lavf53.19.0
Video
ID : 1
Format : AVC
Format/Info : Advanced Video Codec
Format profile : High@L4.1
Format settings, CABAC : Yes
Format settings, RefFrames : 8 frames
Codec ID : avc1
Codec ID/Info : Advanced Video Coding
Duration : 24 min 22 s
Bit rate : 500 kb/s
Width : 640 pixels
Height : 272 pixels
Display aspect ratio : 2.35:1
Frame rate mode : Constant
Frame rate : 25.000 FPS
Color space : YUV
Chroma subsampling : 4:2:0
Bit depth : 8 bits
Scan type : Progressive
Bits/(Pixel*Frame) : 0.115
Stream size : 87.2 MiB (79%)
Writing library : x264 core 148 r2638 7599210
Encoding settings : cabac=1 / ref=8 / deblock=1:-1:-1 / analyse=0x3:0x133 / me=umh / subme=10 / psy=1 / psy_rd=1.00:0.00 / mixed_ref=1 / me_range=24 / chroma_me=1 / trellis=2 / 8x8dct=1 / cqm=0 / deadzone=21,11 / fast_pskip=1 / chroma_qp_offset=-2 / threads=6 / lookahead_threads=1 / sliced_threads=0 / nr=0 / decimate=1 / interlaced=0 / bluray_compat=0 / constrained_intra=0 / bframes=8 / b_pyramid=2 / b_adapt=2 / b_bias=0 / direct=3 / weightb=1 / open_gop=0 / weightp=2 / keyint=250 / keyint_min=126 / scenecut=40 / intra_refresh=0 / rc_lookahead=40 / rc=2pass / mbtree=1 / bitrate=500 / ratetol=1.0 / qcomp=0.60 / qpmin=0 / qpmax=69 / qpstep=4 / cplxblur=20.0 / qblur=0.5 / ip_ratio=1.40 / aq=1:1.00
Menus : 3
Audio
ID : 2
Format : AAC
Format/Info : Advanced Audio Codec
Format profile : LC
Codec ID : 40
Duration : 24 min 22 s
Bit rate mode : Variable
Bit rate : 128 kb/s
Channel(s) : 2 channels
Channel positions : Front: L R
Sampling rate : 48.0 kHz
Frame rate : 46.875 FPS (1024 SPF)
Compression mode : Lossy
Stream size : 22.3 MiB (20%)
Default : Yes
Alternate group : 1
Menus : 3
Релиз от:
[Profile] [PM]

GORGIK ®

Gender: Male

Longevity: 5 years 6 months

Posts: 1532

Location: СССР

Post 14-Mar-2022 09:13 (after 1 month 4 days)

[Quote]

Весь сезон
[Profile] [PM]
Display posts:    
Reply to topic

Current time is: 27-May 18:29

All times are UTC + 3



You cannot post new topics in this forum
You cannot reply to topics in this forum
You cannot edit your posts in this forum
You cannot delete your posts in this forum
You cannot vote in polls in this forum
You cannot attach files in this forum
You cannot download files in this forum