Кот Басик [1-13 серии из 13] (2022) WEB-DLRip от Files-x

Reply to topic
 
Author Message

bond74 ®

Gender: Male

Longevity: 5 years 8 months

Posts: 2440

Post 15-Feb-2023 18:13

[Quote]

Кот Басик
Год выпуска: 2022
Жанр: Мультсериал, компьютерная анимация, детский, комедия
Выпущено: Россия, Кинокомпания ООО "Паровоз"
Режиссер: Андрей Колпин
В ролях: Диомид Виноградов, Иван Забелин
О фильме: У самого обычного молодого программиста живёт совершенно необычный кот по имени Басик. Он наделён сверхъестественным интеллектом. Впрочем, это никого не удивляет. В современном мире не принято удивляться. И очень зря! Ведь Басик действительно удивительный кот. Он умный, сдержанный, заботливый и к тому же настоящий джентльмен. Его забавные приключения и хитроумные проделки удивят и позабавят не только хозяина, но и зрителей!
Качество: WEB-DLRip
Видео: XviD, ~ 1600 Кбит/с, 720x400, 25 кадр/с
Аудио: AC3, 2 ch, 192 Кбит/с
Продолжительность: 13 x ~ 00:02:40
Перевод: Не требуется [Русский]
Cубтитры: нет

Скриншоты




MediaInfo

Общее
Полное имя : C:\films\Кот.Басик.2022.WEB-DLRip.Files-x\03. Кот.Басик.2022.WEB-DLRip.Files-x.avi
Формат : AVI
Формат/Информация : Audio Video Interleave
Размер файла : 33,1 Мбайт
Продолжительность : 2 м. 40 с.
Общий поток : 1 738 Кбит/сек
Программа кодирования : VirtualDubMod 1.5.10.3 | www.virtualdub-fr.org || (build 2550/release)
Библиотека кодирования : VirtualDubMod build 2550/release
Видео
Идентификатор : 0
Формат : MPEG-4 Visual
Профиль формата : Advanced Simple@L5
Настройки формата : BVOP1 / Custom Matrix
Параметр BVOP формата : 1
Параметр QPel формата : Нет
Параметр GMC формата : Без точки перехода
Параметр матрицы формата : Выборочная
Идентификатор кодека : XVID
Идентификатор кодека/Подсказка : XviD
Продолжительность : 2 м. 40 с.
Битрейт : 1 536 Кбит/сек
Ширина : 720 пикселей
Высота : 400 пикселей
Соотношение сторон : 16:9
Частота кадров : 25,000 кадров/сек
Цветовое пространство : YUV
Субдискретизация насыщенности : 4:2:0
Битовая глубина : 8 бит
Тип развёртки : Прогрессивная
Метод сжатия : С потерями
Бит/(Пиксели*Кадры) : 0.213
Размер потока : 29,3 Мбайт (88%)
Библиотека кодирования : XviD 73
Аудио
Идентификатор : 1
Формат : AC-3
Формат/Информация : Audio Coding 3
Коммерческое название : Dolby Digital
Идентификатор кодека : 2000
Продолжительность : 2 м. 40 с.
Вид битрейта : Постоянный
Битрейт : 192 Кбит/сек
Каналы : 2 канала
Channel layout : L R
Частота : 48,0 КГц
Частота кадров : 31,250 кадров/сек (1536 SPF)
Метод сжатия : С потерями
Размер потока : 3,66 Мбайт (11%)
Выравнивание : Разделение по промежуткам
Продолжительность промежутка : 40 мс. (1,00 видеокадр)
Время предзагрузки промежутка : 500 мс.
Service kind : Complete Main
Релиз от:

Release was prepared by RG Files-x

Related releases "Кот Басик" (1):
Added Topic title Size
14 Feb 23  Кот Басик [1-13 серии из 13] (2022) WEB-DLRip-AVC от Files-x 443 MB
Find all related releases Кот Басик
[Profile] [PM]
Display posts:    
Reply to topic

Current time is: 19-Jul 12:59

All times are UTC + 3



You cannot post new topics in this forum
You cannot reply to topics in this forum
You cannot edit your posts in this forum
You cannot delete your posts in this forum
You cannot vote in polls in this forum
You cannot attach files in this forum
You cannot download files in this forum