Новый Comedy Club [19 сезон: 1-25 выпуск] (2023) WEBRip от Files-x

Reply to topic
 
Author Message

papa1951deda ®

Gender: Male

Longevity: 5 years 3 months

Posts: 1726

Location: Казахстан

Post 04-Mar-2023 18:17

[Quote]

Новый Comedy Club Год выпуска: 2023
Жанр: ТВ-шоу, юмор
Выпущено: Россия, ТНТ
В ролях: Гарик Мартиросян, Павел Воля, Тимур Батрутдинов, Александр Ревва, Гавриил Гордеев, Олег Верещагин (I), Дмитрий Сорокин (II), Зураб Матуа, Андрей Аверин, Алексей Лихницкий, Роман Юнусов, Антон Лирник, Андрей Молочный, Александр Незлобин, Дмитрий Хрусталёв, Виктор Васильев (III), Сергей Бессмертный, Игорь Меерсон, Семён Слепаков
Описание: Главное юмористическое шоу российского телевидения возвращается после перерыва. Comedy Club уже почти два десятилетия остаётся на передовой юмора, всегда успевая за трендами и даже задавая их. В числе гостей шоу всегда можно увидеть самых медийных звёзд: от Ольги Бузовой до Евгения Понасенкова. А на сцену всегда выходят комики, которые за словом в карман не лезут. Душевный острослов Павел Воля, харизматичный лицедей Демис Карибидис, обворожительная красотка Марина Кравец и другие звёзды клуба комедий готовы удивлять зрителей в новом сезоне шоу. Миниатюры, стендап, музыкальные номера и не подпадающее ни под какие жанровые рамки творчество организованной музыкальной группы USB – на сцене Comedy будет жарко, как никогда.

Качество: WEBRip
Видео: XviD, 1600 Кбит/с, 720x400
Аудио: AC3, 2 ch, 192 Кбит/с
Продолжительность: 25 х ~ 00:47:00
Перевод: Не требуется
Субтитры: Нет

Скриншоты

MediaInfo

Общее
Полное имя: C:\films\Comedy Club.s19.2023.WEB-DLRip.Files-x\01. Comedy Club.s19.2023.WEB-DLRip.Files-x.avi
Формат: AVI
Формат/Информация: Audio Video Interleave
Размер файла: 563 Мбайт
Продолжительность: 43 м. 46 с.
Общий поток: 1 799 Кбит/сек
Программа кодирования: VirtualDubMod 1.5.10.3 | www.virtualdub-fr.org || (build 2550/release)
Библиотека кодирования: VirtualDubMod build 2550/release
Видео
Идентификатор: 0
Формат: MPEG-4 Visual
Профиль формата: Advanced Simple@L5
Настройки формата: BVOP1 / Custom Matrix
Параметр BVOP формата: 1
Параметр QPel формата: Нет
Параметр GMC формата: Без точки перехода
Параметр матрицы формата: Выборочная
Идентификатор кодека: XVID
Идентификатор кодека/Подсказка: XviD
Продолжительность: 43 м. 46 с.
Битрейт: 1 598 Кбит/сек
Ширина: 720 пикселей
Высота: 400 пикселей
Соотношение сторон: 16:9
Частота кадров: 25, 000 кадров/сек
Цветовое пространство: YUV
Субдискретизация насыщенности: 4:2:0
Битовая глубина: 8 бит
Тип развёртки: Прогрессивная
Метод сжатия: С потерями
Бит/(Пиксели*Кадры): 0.222
Размер потока: 500 Мбайт (89%)
Библиотека кодирования: XviD 73
Аудио
Идентификатор: 1
Формат: AC-3
Формат/Информация: Audio Coding 3
Коммерческое название: Dolby Digital
Идентификатор кодека: 2000
Продолжительность: 43 м. 46 с.
Вид битрейта: Постоянный
Битрейт: 192 Кбит/сек
Каналы: 2 канала
Channel layout: L R
Частота: 48, 0 КГц
Частота кадров: 31, 250 кадров/сек (1536 SPF)
Метод сжатия: С потерями
Размер потока: 60, 1 Мбайт (11%)
Выравнивание: Разделение по промежуткам
Продолжительность промежутка: 40 мс. (1, 00 видеокадр)
Время предзагрузки промежутка: 500 мс.
Service kind: Complete Main

Внимание! Раздача ведётся путём добавления новых серий

Раздача ведётся путём добавления новых серий, при каждом добавлении создаётся новый торрент. Чтобы начать докачку новой серии, пользователям необходимо сделать следующее:
- Остановить скачивание.
- Удалить старый торрент у себя из клиента (старые серии удалять не надо).
- Скачать новый торрент и запустить его у себя в клиенте вместо старого, при этом указать клиенту путь в старую папку куда и должно происходить скачивание новых серий.
Ваш клиент при этом должен произвести хеширование (проверку) старой папки (если не производит сам - помогите ему сделать это), и будет докачивать только те серии которых у вас ещё нет. Старые серии при этом не удаляются, а продолжают раздаваться!
Релиз от:

Release was prepared by RG Files-x

[Profile] [PM]
Display posts:    
Reply to topic

Current time is: 21-Feb 04:37

All times are UTC + 3



You cannot post new topics in this forum
You cannot reply to topics in this forum
You cannot edit your posts in this forum
You cannot delete your posts in this forum
You cannot vote in polls in this forum
You cannot attach files in this forum
You cannot download files in this forum