КВН-2023. Высшая лига [1-7 выпуск] (2024) WEB-DLRip от Files-x

Reply to topic
 
Author Message

bond74 ®

Gender: Male

Longevity: 5 years 8 months

Posts: 2440

Post 26-Mar-2023 18:19

[Quote]

КВН-2023. Высшая лига Год выпуска: 2024
Жанр: ТВ-шоу, телеигра, юмор
Выпущено: Россия, АМИК, Первый канал
Ведущий: Александр Олешко
Описание: После двух сезонов с участием 25-и команд, в 2023 году было решено сократить Высшую лигу до 20 участников. Сезон играется по слегка изменённой схеме: количество игр 1/8-й финала сокращено с пяти до четырёх, в каждой играет по пять команд, из которых вылетает одна. Далее играются четыре четвертьфинала (вместо трёх), два полуфинала и финал. В сезон попали вице-чемпионы 2022 «Поэтессы» и «Ровеньки», а также бронзовые призёры Сборная МАИ — для этих команд сезон 2023 второй в Высшей лиге. Среди полуфиналистов 2022 года, места в новом сезоне смогли получить ростовский «Флэш-Рояль» и «Красный лис» из Владивостока; в то время, как команде «Столик» из Чулыма во второй попытке отказали, а «Северяне» из Нягани заявили о том, что решили пропустить сезон. Попытки трёх полуфиналистов сезона 2021, разочаровавших в 2022 году, попасть в третий сезон оказались удачными для нижегородских «Рос» и челябинского «Города N». Команда «ИП Бондарев» из Надыма, которая в 2021 году дошла до полуфинала Высшей лиги, а также выиграла Летний кубок (в тандеме с командой «Русская дорога»), в сезон 2023 в итоге не попала.
Качество: WEB-DLRip
Видео: XviD, 1600 Кбит/с, 720x400, 25 кадр/с
Аудио: AC3, 2 ch, 192 Кбит/с
Продолжительность: 7 х ~ 00:23:00
Перевод: Не требуется
Субтитры: Нет

Скриншоты



MediaInfo

Общее
Полное имя : C:\films\КВН-2023. Высшая лига.WEB-DLRip.Files-x\02. КВН-2023. Высшая лига.WEB-DLRip.Files-x.avi
Формат : AVI
Формат/Информация : Audio Video Interleave
Размер файла : 1,35 Гбайт
Продолжительность : 1 ч. 47 м.
Общий поток : 1 803 Кбит/сек
Программа кодирования : VirtualDubMod 1.5.10.3 | www.virtualdub-fr.org || (build 2550/release)
Библиотека кодирования : VirtualDubMod build 2550/release
Видео
Идентификатор : 0
Формат : MPEG-4 Visual
Профиль формата : Advanced Simple@L5
Настройки формата : BVOP1 / Custom Matrix
Параметр BVOP формата : 1
Параметр QPel формата : Нет
Параметр GMC формата : Без точки перехода
Параметр матрицы формата : Выборочная
Идентификатор кодека : XVID
Идентификатор кодека/Подсказка : XviD
Продолжительность : 1 ч. 47 м.
Битрейт : 1 599 Кбит/сек
Ширина : 720 пикселей
Высота : 400 пикселей
Соотношение сторон : 16:9
Частота кадров : 30,000 кадров/сек
Цветовое пространство : YUV
Субдискретизация насыщенности : 4:2:0
Битовая глубина : 8 бит
Тип развёртки : Прогрессивная
Метод сжатия : С потерями
Бит/(Пиксели*Кадры) : 0.185
Размер потока : 1,20 Гбайт (89%)
Библиотека кодирования : XviD 73
Аудио
Идентификатор : 1
Формат : AC-3
Формат/Информация : Audio Coding 3
Коммерческое название : Dolby Digital
Идентификатор кодека : 2000
Продолжительность : 1 ч. 47 м.
Вид битрейта : Постоянный
Битрейт : 192 Кбит/сек
Каналы : 2 канала
Channel layout : L R
Частота : 48,0 КГц
Частота кадров : 31,250 кадров/сек (1536 SPF)
Метод сжатия : С потерями
Размер потока : 148 Мбайт (11%)
Выравнивание : Разделение по промежуткам
Продолжительность промежутка : 33 мс. (1,00 видеокадр)
Время предзагрузки промежутка : 500 мс.
Service kind : Complete Main

Внимание! Раздача ведётся путём добавления новых серий

Раздача ведётся путём добавления новых серий, при каждом добавлении создаётся новый торрент. Чтобы начать докачку новой серии, пользователям необходимо сделать следующее:
- Остановить скачивание.
- Удалить старый торрент у себя из клиента (старые серии удалять не надо).
- Скачать новый торрент и запустить его у себя в клиенте вместо старого, при этом указать клиенту путь в старую папку куда и должно происходить скачивание новых серий.
Ваш клиент при этом должен произвести хеширование (проверку) старой папки (если не производит сам - помогите ему сделать это), и будет докачивать только те серии которых у вас ещё нет. Старые серии при этом не удаляются, а продолжают раздаваться!
Релиз от:

Release was prepared by RG Files-x

[Profile] [PM]
Display posts:    
Reply to topic

Current time is: 19-Jul 12:28

All times are UTC + 3



You cannot post new topics in this forum
You cannot reply to topics in this forum
You cannot edit your posts in this forum
You cannot delete your posts in this forum
You cannot vote in polls in this forum
You cannot attach files in this forum
You cannot download files in this forum