Экстрасенсы. Битва сильнейших [1 сезон: 1-29 выпуски из 29] (2023) WEBRip 720p от Files-x

Reply to topic
 
Author Message

patriot67 ®

Gender: Male

Longevity: 4 years 6 months

Posts: 302

Post 03-May-2023 20:56

[Quote]

Экстрасенсы. Битва сильнейших Год выпуска: 2023
Жанр: Паранормальное шоу, мистика, экстрасенсы, сверхъестественное
Выпущено: Россия, ФМП Групп
Режиссер: Олег Чаурс
Ведущий: Марат Башаров
О фильме: Экстрасенсы. Битва сильнейших началась! Телешоу канала ТНТ объединит самых ярких участников «Битвы экстрасенсов». Авторы отобрали девятерых ярчайших и наиболее сильных магов из победителей и финалистов прошлых лет и подготовили им сложнейшие задания, чтобы проверить, на что они по-настоящему способны. Каждый выпуск будет посвящен отдельной истории и связанным с ней испытаниям. Выбирать, кто справился, а кто провалился, будут ведущие, члены жюри, телезрители, да и сами участники-экстрасенсы. Они решат, чей уровень мастерства выше, а кому стоит практиковаться и оттачивать навыки. В первой схватке сошлись 3 экстрасенса: Виктория Райдос, Влад Череватый и Олег Шепс.
Качество: WEBRip 720p
Видео: MPEG-4 AVC, ~ 2864 Кбит/с, 1280x720, 25 кадр/с
Аудио: AC3, 2 ch, 192 Кбит/с
Продолжительность: 29 х ~ 01:18:00
Перевод: Не требуется
Cубтитры: Нет

Скриншоты


MediaInfo

Общее
Уникальный идентификатор : 247734189557754448575788669225674401914 (0xBA5FDE9075A7326BB4081FBC3D36E87A)
Полное имя : C:\films\Экстрасенсы. Битва сильнейших.s01.2023.WEB-DL 720p.Files-x\02. Экстрасенсы. Битва сильнейших.s01.2023.WEB-DL 720p.Files-x..mkv
Формат : Matroska
Версия формата : Version 2
Размер файла : 1,58 Гбайт
Продолжительность : 1 ч. 12 м.
Режим общего битрейта : Переменный
Общий поток : 3 118 Кбит/сек
Дата кодирования : UTC 2023-04-09 04:30:40
Программа кодирования : mkvmerge v7.8.0 ('River Man') 32bit built on Apr 3 2015 12:11:22
Библиотека кодирования : libebml v1.3.1 + libmatroska v1.4.2
Видео
Идентификатор : 1
Формат : AVC
Формат/Информация : Advanced Video Codec
Профиль формата : High@L4.1
Настройки формата : CABAC / 3 Ref Frames
Параметр CABAC формата : Да
Параметр RefFrames формата : 3 кадра
Параметр GOP формата : M=1, N=60
Идентификатор кодека : V_MPEG4/ISO/AVC
Продолжительность : 1 ч. 12 м.
Вид битрейта : Переменный
Битрейт : 2 864 Кбит/сек
Максимальный битрейт : 5 000 Кбит/сек
Ширина : 1 280 пикселей
Высота : 720 пикселей
Соотношение сторон : 16:9
Режим частоты кадров : Постоянный
Частота кадров : 30,000 кадров/сек
Цветовое пространство : YUV
Субдискретизация насыщенности : 4:2:0
Битовая глубина : 8 бит
Тип развёртки : Прогрессивная
Бит/(Пиксели*Кадры) : 0.104
Размер потока : 1,45 Гбайт (92%)
Default : Да
Forced : Нет
Цветовой диапазон : Limited
Основные цвета : BT.709
Характеристики трансфера : BT.709
Коэффициенты матрицы : BT.709
Аудио
Идентификатор : 2
Формат : AC-3
Формат/Информация : Audio Coding 3
Коммерческое название : Dolby Digital
Идентификатор кодека : A_AC3
Продолжительность : 1 ч. 12 м.
Вид битрейта : Постоянный
Битрейт : 192 Кбит/сек
Каналы : 2 канала
Channel layout : L R
Частота : 44,1 КГц
Частота кадров : 28,711 кадров/сек (1536 SPF)
Метод сжатия : С потерями
Размер потока : 99,9 Мбайт (6%)
Service kind : Complete Main
Default : Да
Forced : Нет

Внимание! Раздача ведётся путём добавления новых серий

Раздача ведётся путём добавления новых серий, при каждом добавлении создаётся новый торрент. Чтобы начать докачку новой серии, пользователям необходимо сделать следующее:
- Остановить скачивание.
- Удалить старый торрент у себя из клиента (старые серии удалять не надо).
- Скачать новый торрент и запустить его у себя в клиенте вместо старого, при этом указать клиенту путь в старую папку куда и должно происходить скачивание новых серий.
Ваш клиент при этом должен произвести хеширование (проверку) старой папки (если не производит сам - помогите ему сделать это), и будет докачивать только те серии которых у вас ещё нет. Старые серии при этом не удаляются, а продолжают раздаваться!
Релиз от:

Release was prepared by RG Files-x

[Profile] [PM]
Display posts:    
Reply to topic

Current time is: 27-May 19:50

All times are UTC + 3



You cannot post new topics in this forum
You cannot reply to topics in this forum
You cannot edit your posts in this forum
You cannot delete your posts in this forum
You cannot vote in polls in this forum
You cannot attach files in this forum
You cannot download files in this forum