Истории большой страны [1 сезон: 1-18 серии] (2022) WEBRip 720p от Files-x

Reply to topic
 
Author Message

bond74 ®

Gender: Male

Longevity: 5 years 8 months

Posts: 2440

Post 23-May-2023 08:20

[Quote]

Истории большой страны
Год выпуска: 2022
Жанр: Комедия, скетчком
Выпущено: Россия, Comedy Club Production
Режиссер: Алёна Корчагина (II)
В ролях: Нонна Гришаева, Максим Лагашкин, Ольга Тумайкина, Алексей Маклаков, Михаил Полицеймако, Станислав Дужников, Алина Алексеева (II), Георгий Дронов, Татьяна Орлова, Юрий Ицков, Ёла Санько, Мария Кравченко, Максим Киселев (II), Светлана Пермякова, Арина Постникова, Денис Бузин, Иван Пышненко, Ренат Мухамбаев, Иван Агапов, Павел Мисаилов, Александр Нестеров (II), Данил Никитин, Илья Васильев (II)
О фильме: "Истории большой страны" - смешные и остроумные истории из нашей повседневной жизни в исполнении любимых актеров в образах персонажей, в которых каждый узнает своего соседа, начальника, мужа, жену или коллегу. "Истории большой страны" – это короткие, но весьма уморительные скетчи из повседневной жизни, в которых может оказаться каждый из нас: например девушка приезжает в автосервис в надежде скрыть от мужа царапины на помятой машине; жена в супермаркете вырубает броском консервов собственного мужа; директриса, спасаясь от школьной проверки, покоряет высоту спортзала на канате; начальник меняет команду, взяв за ориентир... габариты подчиненных; пенсионерка устраивает тест на скорость городским спецслужбам; риелтор демонстрирует клиентам достоинства звукоизоляции с помощью пугача, а сотрудники ДПС получают чистосердечное признание нетрезвого водителя весьма нетривиальным артистичным способом...

Качество: WEBRip 720p
Видео: MPEG-4 AVC, ~ 2000 Кбит/с, 1280x720, 25 кадр/с
Аудио: AC3, 2 ch, 192 Кбит/с
Продолжительность: 14 х 00:48:55
Перевод: Не требуется

Скриншоты




MediaInfo

Общее
Уникальный идентификатор : 216406594913513379342303469469459357950 (0xA2CE64E5BF92EB92A5C51E1DA6C520FE)
Полное имя : C:\films\Истории большой страны.2023.WEB-DL 720p.Files-x\01. Истории большой страны.2023.WEB-DL 720p.Files-x.mkv
Формат : Matroska
Версия формата : Version 2
Размер файла : 698 Мбайт
Продолжительность : 48 м. 57 с.
Режим общего битрейта : Переменный
Общий поток : 1 992 Кбит/сек
Дата кодирования : UTC 2023-05-22 11:27:09
Программа кодирования : mkvmerge v7.8.0 ('River Man') 32bit built on Apr 3 2015 12:11:22
Библиотека кодирования : libebml v1.3.1 + libmatroska v1.4.2
Видео
Идентификатор : 1
Формат : AVC
Формат/Информация : Advanced Video Codec
Профиль формата : High@L3.1
Настройки формата : CABAC / 2 Ref Frames
Параметр CABAC формата : Да
Параметр RefFrames формата : 2 кадра
Идентификатор кодека : V_MPEG4/ISO/AVC
Продолжительность : 48 м. 57 с.
Вид битрейта : Переменный
Битрейт : 1 760 Кбит/сек
Максимальный битрейт : 2 400 Кбит/сек
Ширина : 1 280 пикселей
Высота : 720 пикселей
Соотношение сторон : 16:9
Режим частоты кадров : Постоянный
Частота кадров : 25,000 кадров/сек
Цветовое пространство : YUV
Субдискретизация насыщенности : 4:2:0
Битовая глубина : 8 бит
Тип развёртки : Прогрессивная
Бит/(Пиксели*Кадры) : 0.076
Размер потока : 617 Мбайт (88%)
Default : Да
Forced : Нет
Аудио
Идентификатор : 2
Формат : AC-3
Формат/Информация : Audio Coding 3
Коммерческое название : Dolby Digital
Идентификатор кодека : A_AC3
Продолжительность : 48 м. 57 с.
Вид битрейта : Постоянный
Битрейт : 192 Кбит/сек
Каналы : 2 канала
Channel layout : L R
Частота : 48,0 КГц
Частота кадров : 31,250 кадров/сек (1536 SPF)
Метод сжатия : С потерями
Задержка видео : -40 мс.
Размер потока : 67,2 Мбайт (10%)
Service kind : Complete Main
Default : Да
Forced : Нет

Раздача ведётся путём добавления новых серий

Внимание! Раздача ведётся путём добавления новых серий; при каждом добавлении создаётся новый торрент.
Чтобы начать докачку новой серии, пользователям необходимо сделать следующее:
1. Остановить скачивание;
2. Удалить старый торрент у себя из клиента (старые серии удалять не надо);
3. Скачать новый торрент и запустить его у себя в клиенте вместо старого, при этом указать клиенту путь в старую папку куда и должно происходить скачивание новых серий. Ваш клиент при этом должен произвести хеширование (проверку) старой папки и будет докачивать только те серии, которых у вас ещё нет. Старые серии при этом не удаляются, а продолжают раздаваться! Eсли вы уже удалили старые серии, то предотвратить повторную закачку старых серий можно, отжав галочку в соответствующих местах при запуске нового торрента.
Релиз от:

Release was prepared by RG Files-x

[Profile] [PM]
Display posts:    
Reply to topic

Current time is: 19-Jul 12:44

All times are UTC + 3



You cannot post new topics in this forum
You cannot reply to topics in this forum
You cannot edit your posts in this forum
You cannot delete your posts in this forum
You cannot vote in polls in this forum
You cannot attach files in this forum
You cannot download files in this forum