Заповедный спецназ [2 сезон: 1-20 серии из 20] (2023) WEBRip от Files-х

Reply to topic
 
Author Message

bond74 ®

Gender: Male

Longevity: 5 years 7 months

Posts: 2420

Post 04-Sep-2023 23:14

[Quote]

Заповедный спецназ
Год выпуска: 2023
Жанр: Боевик, криминал
Выпущено: Россия, Кинокомпания "АМЕДИА Продакшн"
Режиссер: Алексей Быстрицкий
В ролях: Максим Дрозд, Николай Козак, Виктория Корлякова, Даниил Кользенов, Пётр Королёв (II), Даниил Шперлинг, Иван Клещевников, Кристина Соболева, Игорь Хрипунов, Марина Казанкова, Ева Авеева, Иван Оганесян, Серафима Соловьева, Евгения Ахременко, Анастасия Чепелюк, Полина Воробьёва (II), Богдан Кияшко, Илья Васильев (II), Алексей Степанов (II), Дмитрий Тополь, Александр Никольский (II), Валерий Новиков, Гарик Айвазов, Анастасия Цой, Руслан Ягудин
О фильме: В новом сезоне «заповедному спецназу» Тарханова придётся вступить в смертельную схватку с врагом не только на территории «Байкальского национального парка», но и далеко за его пределами, так как бандитов и мерзавцев хватает везде, а Тарханов со своими ребятами те люди, которые не могут пройти мимо чужой беды.

Качество: WEBRip
Видео: XviD, ~ 1600 Кбит/с, 720x304, 25 кадр/с
Аудио: AC3, 2 ch, 192 Кбит/с
Продолжительность: 20 x ~ 00:46:45
Перевод: Не требуется
Cубтитры: Русские

Скриншоты



MediaInfo

Общее
Полное имя : C:\films\Заповедный спецназ.S02.(2023).WEBRip.Files-x\01.Заповедный спецназ.S02.(2023).WEBRip.Files-x.avi
Формат : AVI
Формат/Информация : Audio Video Interleave
Размер файла : 598 Мбайт
Продолжительность : 46 м. 45 с.
Общий поток : 1 788 Кбит/сек
Программа кодирования : VirtualDubMod 1.5.10.3 | www.virtualdub-fr.org || (build 2550/release)
Библиотека кодирования : VirtualDubMod build 2550/release
Видео
Идентификатор : 0
Формат : MPEG-4 Visual
Профиль формата : Advanced Simple@L5
Настройки формата : BVOP1 / Custom Matrix
Параметр BVOP формата : 1
Параметр QPel формата : Нет
Параметр GMC формата : Без точки перехода
Параметр матрицы формата : Выборочная
Идентификатор кодека : XVID
Идентификатор кодека/Подсказка : XviD
Продолжительность : 46 м. 45 с.
Битрейт : 1 586 Кбит/сек
Ширина : 720 пикселей
Высота : 304 пикселя
Соотношение сторон : 2,35:1
Частота кадров : 25,000 кадров/сек
Цветовое пространство : YUV
Субдискретизация насыщенности : 4:2:0
Битовая глубина : 8 бит
Тип развёртки : Прогрессивная
Метод сжатия : С потерями
Бит/(Пиксели*Кадры) : 0.290
Размер потока : 530 Мбайт (89%)
Библиотека кодирования : XviD 73
Аудио
Идентификатор : 1
Формат : AC-3
Формат/Информация : Audio Coding 3
Коммерческое название : Dolby Digital
Идентификатор кодека : 2000
Продолжительность : 46 м. 45 с.
Вид битрейта : Постоянный
Битрейт : 192 Кбит/сек
Каналы : 2 канала
Channel layout : L R
Частота : 48,0 КГц
Частота кадров : 31,250 кадров/сек (1536 SPF)
Метод сжатия : С потерями
Размер потока : 64,2 Мбайт (11%)
Выравнивание : Разделение по промежуткам
Продолжительность промежутка : 40 мс. (1,00 видеокадр)
Время предзагрузки промежутка : 500 мс.
Service kind : Complete Main

Раздача ведётся путём добавления новых серий

Внимание! Раздача ведётся путём добавления новых серий; при каждом добавлении создаётся новый торрент.
Чтобы начать докачку новой серии, пользователям необходимо сделать следующее:
1. Остановить скачивание;
2. Удалить старый торрент у себя из клиента (старые серии удалять не надо);
3. Скачать новый торрент и запустить его у себя в клиенте вместо старого, при этом указать клиенту путь в старую папку куда и должно происходить скачивание новых серий. Ваш клиент при этом должен произвести хеширование (проверку) старой папки и будет докачивать только те серии, которых у вас ещё нет. Старые серии при этом не удаляются, а продолжают раздаваться! Eсли вы уже удалили старые серии, то предотвратить повторную закачку старых серий можно, отжав галочку в соответствующих местах при запуске нового торрента.
Релиз от:
[Profile] [PM]
Display posts:    
Reply to topic

Current time is: 24-Jun 06:32

All times are UTC + 3



You cannot post new topics in this forum
You cannot reply to topics in this forum
You cannot edit your posts in this forum
You cannot delete your posts in this forum
You cannot vote in polls in this forum
You cannot attach files in this forum
You cannot download files in this forum