Женский Stand Up [5 сезон: 1-14 выпуск из 17] (2023) WEBRip от Files-x

Reply to topic
 
Author Message

bond74 ®

Gender: Male

Longevity: 5 years 6 months

Posts: 2399

Post 13-Sep-2023 22:55

[Quote]

Женский Stand Up Год выпуска: 2023
Жанр: ТВ-шоу, юмор
Выпущено: Россия, Comedy Club Production
Ведущий: Ирина Мягкова
В ролях: Зоя Яровицына, Надежда Джабраилова, Александра Муратова, Мария Маркова, Сауле Юсупова, Маргарита Родина, Павел Залуцкий
О фильме: Если ты думаешь, что женщины не ругаются, не жалуются на детей, не шутят о сексе и еще множество всяких «не», то это шоу докажет обратное! Для героинь «Женского стендапа» нет запретных тем. Они честно говорят о том, что их не устраивает в отношениях, высмеивают стереотипы семейной жизни и откровенно заявляют, что быть хорошей матерью вообще-то очень сложно. Хочешь узнать, о чем думают женщины, смотри «Женский стендап»!
Качество: WEBRip
Видео: XviD, ~ 1600 Кбит/с, 720х400, 25 кадр/с
Аудио: AC3, 2 ch, 192 Кбит/с
Продолжительность: 3 x ~ 00:48:00
Перевод: Не требуется [Русский]
Cубтитры: Нет

Скриншоты



MediaInfo

Общее
Полное имя : C:\films\Женский стендап.s04.2022.WEB-DLRip.Files-x\01. Женский стендап.s04.2022.WEB-DLRip.Files-x.avi
Формат : AVI
Формат/Информация : Audio Video Interleave
Размер файла : 586 Мбайт
Продолжительность : 45 м. 30 с.
Общий поток : 1 801 Кбит/сек
Программа кодирования : VirtualDubMod 1.5.10.3 | www.virtualdub-fr.org || (build 2550/release)
Библиотека кодирования : VirtualDubMod build 2550/release
Видео
Идентификатор : 0
Формат : MPEG-4 Visual
Профиль формата : Advanced Simple@L5
Настройки формата : BVOP1 / Custom Matrix
Параметр BVOP формата : 1
Параметр QPel формата : Нет
Параметр GMC формата : Без точки перехода
Параметр матрицы формата : Выборочная
Идентификатор кодека : XVID
Идентификатор кодека/Подсказка : XviD
Продолжительность : 45 м. 30 с.
Битрейт : 1 600 Кбит/сек
Ширина : 720 пикселей
Высота : 400 пикселей
Соотношение сторон : 16:9
Частота кадров : 25,000 кадров/сек
Цветовое пространство : YUV
Субдискретизация насыщенности : 4:2:0
Битовая глубина : 8 бит
Тип развёртки : Прогрессивная
Метод сжатия : С потерями
Бит/(Пиксели*Кадры) : 0.222
Размер потока : 521 Мбайт (89%)
Библиотека кодирования : XviD 1.2.1 (UTC 2008-12-04)
Аудио
Идентификатор : 1
Формат : AC-3
Формат/Информация : Audio Coding 3
Коммерческое название : Dolby Digital
Идентификатор кодека : 2000
Продолжительность : 45 м. 30 с.
Вид битрейта : Постоянный
Битрейт : 192 Кбит/сек
Каналы : 2 канала
Channel layout : L R
Частота : 48,0 КГц
Частота кадров : 31,250 кадров/сек (1536 SPF)
Метод сжатия : С потерями
Размер потока : 62,5 Мбайт (11%)
Выравнивание : Разделение по промежуткам
Продолжительность промежутка : 40 мс. (1,00 видеокадр)
Время предзагрузки промежутка : 500 мс.
Service kind : Complete Main

Внимание! Раздача ведётся путём добавления новых серий

Раздача ведётся путём добавления новых серий, при каждом добавлении создаётся новый торрент. Чтобы начать докачку новой серии, пользователям необходимо сделать следующее:
- Остановить скачивание.
- Удалить старый торрент у себя из клиента (старые серии удалять не надо).
- Скачать новый торрент и запустить его у себя в клиенте вместо старого, при этом указать клиенту путь в старую папку куда и должно происходить скачивание новых серий.
Ваш клиент при этом должен произвести хеширование (проверку) старой папки (если не производит сам - помогите ему сделать это), и будет докачивать только те серии которых у вас ещё нет. Старые серии при этом не удаляются, а продолжают раздаваться!
Релиз от:

Release was prepared by RG Files-x

[Profile] [PM]
Display posts:    
Reply to topic

Current time is: 27-May 19:47

All times are UTC + 3



You cannot post new topics in this forum
You cannot reply to topics in this forum
You cannot edit your posts in this forum
You cannot delete your posts in this forum
You cannot vote in polls in this forum
You cannot attach files in this forum
You cannot download files in this forum