Новые мутанты / Люди Икс: Новые мутанты / The New Mutants (2020) BDRip-AVC | iTunes

Reply to topic
 
Author Message

HardwareMining ®

Gender: Male

Longevity: 4 years 9 months

Posts: 650

Post 17-Sep-2023 17:07

[Quote]

Новые мутанты / Люди Икс: Новые мутанты / The New Mutants
«Everyone has demons» Год выпуска: 2020
Жанр: фантастика, боевик, детектив, ужасы
Выпущено: США | 20th Century Studios, Marvel Entertainment, Twentieth Century Fox
Режиссер: Джош Бун
В ролях: Мэйси Уильямс, Аня Тейлор-Джой, Чарли Хитон, Алиси Брага, Блю Хант, Генри Зага, Адам Бич, Томас Ки, Колби Ганнетт, Хэппи Андерсон
О фильме:
После нашествия на её резервацию загадочного торнадо и гибели отца Дэниель Мунстар приходит в себя связанной на больничной койке. Доктор Рейес сообщает девушке, что она — единственная выжившая, и теперь вместе с четырьмя подростками находится в специализированном учреждении, где их изучают и учат контролировать свои сверхспособности. Вскоре Дэни выясняет, что покинуть огороженную силовым полем территорию невозможно, а ребят начинают преследовать кажущиеся очень реальными кошмары.

Качество: BDRip-AVC
Видео: AVC, 1024x552 (1,85:1), 23,976 fps, 1305 Kbit/s (0.096 bit/pixel)
Аудио: русский, AC3, 5.1, 48 kHz, 384 kbps CBR
Продолжительность: 01:34:04
Перевод: Дублированный | iTunes
Субтитры: Отсутствуют

Скриншоты

MediaInfo

General
Unique ID : 229201460022204665579354710747094785791 (0xAC6E9873B28F8A149255668BAF651EFF)
Complete name : G:\GF\The.New.Mutants.2020.BDRip.AVC.Rip.by.HardwareMining.R.G.Generalfilm.mkv
Format : Matroska
Format version : Version 4
File size : 1.11 GiB
Duration : 1 h 34 min
Overall bit rate : 1 691 kb/s
Frame rate : 23.976 FPS
Movie name : The.New.Mutants.2020.BDRip.AVC.Rip.by.HardwareMining.R.G.Generalfilm
Encoded date : 2023-09-17 13:31:35 UTC
Writing application : mkvmerge v6.8.0 ('Theme for Great Cities') 64bit built on Mar 2 2014 21:34:26
Writing library : libebml v1.3.0 + libmatroska v1.4.1
Cover : Yes
Attachments : cover.png
Video
ID : 1
Format : AVC
Format/Info : Advanced Video Codec
Format profile : High@L4.1
Format settings : CABAC / 9 Ref Frames
Format settings, CABAC : Yes
Format settings, Reference frames : 9 frames
Codec ID : V_MPEG4/ISO/AVC
Duration : 1 h 34 min
Bit rate : 1 305 kb/s
Width : 1 024 pixels
Height : 552 pixels
Display aspect ratio : 1.85:1
Frame rate mode : Constant
Frame rate : 23.976 (24000/1001) FPS
Color space : YUV
Chroma subsampling : 4:2:0
Bit depth : 8 bits
Scan type : Progressive
Bits/(Pixel*Frame) : 0.096
Stream size : 857 MiB (75%)
Writing library : x264 core 148 r2638 7599210
Encoding settings : cabac=1 / ref=9 / deblock=1:-2:-1 / analyse=0x3:0x113 / me=umh / subme=10 / psy=1 / psy_rd=0.00:0.15 / mixed_ref=1 / me_range=32 / chroma_me=1 / trellis=2 / 8x8dct=1 / cqm=0 / deadzone=21,11 / fast_pskip=0 / chroma_qp_offset=-3 / threads=6 / lookahead_threads=1 / sliced_threads=0 / nr=0 / decimate=0 / interlaced=0 / bluray_compat=0 / constrained_intra=0 / bframes=10 / b_pyramid=2 / b_adapt=2 / b_bias=0 / direct=1 / weightb=1 / open_gop=0 / weightp=2 / keyint=240 / keyint_min=23 / scenecut=40 / intra_refresh=0 / rc_lookahead=40 / rc=2pass / mbtree=0 / bitrate=1305 / ratetol=1.0 / qcomp=0.65 / qpmin=0 / qpmax=69 / qpstep=4 / cplxblur=20.0 / qblur=0.5 / vbv_maxrate=50000 / vbv_bufsize=65500 / nal_hrd=none / filler=0 / ip_ratio=1.40 / pb_ratio=1.30 / aq=1:2.00
Language : English
Default : Yes
Forced : No
Audio
ID : 2
Format : AC-3
Format/Info : Audio Coding 3
Commercial name : Dolby Digital
Codec ID : A_AC3
Duration : 1 h 34 min
Bit rate mode : Constant
Bit rate : 384 kb/s
Channel(s) : 6 channels
Channel layout : L R C LFE Ls Rs
Sampling rate : 48.0 kHz
Frame rate : 31.250 FPS (1536 SPF)
Compression mode : Lossy
Stream size : 258 MiB (23%)
Title : Dub | iTunes
Language : Russian
Service kind : Complete Main
Default : Yes
Forced : Yes
Menu
00:00:00.000 : en:Chapter 01
00:02:39.951 : en:Chapter 02
00:08:07.737 : en:Chapter 03
00:10:53.862 : en:Chapter 04
00:14:33.039 : en:Chapter 05
00:17:23.918 : en:Chapter 06
00:19:53.067 : en:Chapter 07
00:23:41.879 : en:Chapter 08
00:27:54.590 : en:Chapter 09
00:30:30.078 : en:Chapter 10
00:33:26.588 : en:Chapter 11
00:39:36.791 : en:Chapter 12
00:43:12.965 : en:Chapter 13
00:47:53.287 : en:Chapter 14
00:50:35.157 : en:Chapter 15
00:52:12.254 : en:Chapter 16
00:55:28.825 : en:Chapter 17
00:57:13.055 : en:Chapter 18
01:00:17.113 : en:Chapter 19
01:02:37.754 : en:Chapter 20
01:06:36.367 : en:Chapter 21
01:11:12.101 : en:Chapter 22
01:13:44.462 : en:Chapter 23
01:15:07.878 : en:Chapter 24
01:18:57.107 : en:Chapter 25
01:21:52.366 : en:Chapter 26
01:24:32.276 : en:Chapter 27
01:26:46.201 : en:Chapter 28
Релиз от:
[Profile] [PM]
Display posts:    
Reply to topic

Current time is: 19-Jul 12:42

All times are UTC + 3



You cannot post new topics in this forum
You cannot reply to topics in this forum
You cannot edit your posts in this forum
You cannot delete your posts in this forum
You cannot vote in polls in this forum
You cannot attach files in this forum
You cannot download files in this forum