Начальник Чукотки (1966) WEBRip-AVC

Reply to topic
 
Author Message

Pipetka ®

Gender: Male

Longevity: 5 years 7 months

Posts: 48

Post 28-Sep-2023 14:38

[Quote]

Начальник Чукотки Год выпуска: 1966
Жанр: Драма
Выпущено: Ленфильм
Режиссер: Виталий Мельников
В ролях: Михаил Кононов, Алексей Грибов, Геннадий Данзанов, Николай Волков, Павел Винник, Степан Крылов, Тито Ромалио, Иосиф Конопатский, Алексей Кожевников, Константин Абашевский, Павел Панков, Анатолий Королькевич, Анатолий Абрамов, Александр Захаров, Николай Кузьмин, Лим Су, Михаил Васильев
О фильме: 1922 год. Комиссара Глазкова посылают на Чукотку устанавливать советскую власть. По пути в Уйгунан Глазков умирает, и к месту назначения добирается только молодой писарь Алеша, который волей случая становится начальником Чукотки.
Качество: WEBRip-AVC
Видео: MPEG-4 AVC, 4515 Кбит/с, 1152x536, 25.000 fps
Аудио: Русский (AC3, 6 ch, 448 Кбит/с; AC3, 1 ch, 224 Кбит/с)
Продолжительность: 01:26:09
Перевод: Не требуется
Cубтитры: нет

Скриншоты


MediaInfo

Общее
Уникальный идентификатор : 223348465260941299993822581901421430797 (0xA8075987C47C0BF189A205338DA7C80D)
Полное имя : D:КиноНачальник Чукотки_1966-WEBRip-AVC_KORSAR.mkv
Формат : Matroska
Версия формата : Version 2
Размер файла : 3,18 Гбайт
Продолжительность : 1 ч. 26 м.
Общий поток : 5 292 Кбит/сек
Частота кадров : 25,000 кадров/сек
Название фильма : Начальник Чукотки_1966-WEBRip-AVC_KORSAR
Дата кодирования : 2019-12-22 10:19:38 UTC
Программа кодирования : mkvmerge v5.8.0 ('No Sleep / Pillow') built on Sep 2 2012 15:37:04
Библиотека кодирования : libebml v1.2.3 + libmatroska v1.3.0
Видео
Идентификатор : 1
Формат : AVC
Формат/Информация : Advanced Video Codec
Профиль формата : High@L4.1
Настройки формата : CABAC / 13 Ref Frames
Параметр CABAC формата : Да
Параметр RefFrames формата : 13 кадров
Идентификатор кодека : V_MPEG4/ISO/AVC
Продолжительность : 1 ч. 26 м.
Битрейт : 4 515 Кбит/сек
Ширина : 1 152 пикселя
Высота : 536 пикселей
Соотношение сторон : 2,149
Режим частоты кадров : Постоянный
Частота кадров : 25,000 кадров/сек
Цветовое пространство : YUV
Субдискретизация насыщенности : 4:2:0
Битовая глубина : 8 бит
Тип развёртки : Прогрессивная
Бит/(Пиксели*Кадры) : 0.292
Размер потока : 2,72 Гбайт (85%)
Библиотека кодирования : x264 core 152 r2851kMod ba24899
Настройки программы : cabac=1 / ref=13 / deblock=1:-2:-2 / analyse=0x3:0x113 / me=umh / subme=10 / psy=1 / fade_compensate=0.00 / psy_rd=1.03:0.00 / mixed_ref=1 / me_range=40 / chroma_me=1 / trellis=2 / 8x8dct=1 / cqm=0 / deadzone=21,11 / fast_pskip=1 / chroma_qp_offset=-2 / threads=12 / lookahead_threads=2 / sliced_threads=0 / nr=0 / decimate=1 / interlaced=0 / bluray_compat=0 / constrained_intra=0 / bframes=8 / b_pyramid=2 / b_adapt=2 / b_bias=0 / direct=1 / weightb=1 / open_gop=0 / weightp=2 / keyint=250 / keyint_min=25 / scenecut=40 / intra_refresh=0 / rc=crf / mbtree=0 / crf=16.5000 / qcomp=0.63 / qpmin=0 / qpmax=33 / qpstep=4 / ip_ratio=1.40 / pb_ratio=1.30 / aq=2:0.80
Язык : English
Default : Да
Forced : Нет
Цветовой диапазон : Limited
Основные цвета : BT.709
Характеристики трансфера : BT.709
Коэффициенты матрицы : BT.709
Аудио #1
Идентификатор : 2
Формат : AC-3
Формат/Информация : Audio Coding 3
Коммерческое название : Dolby Digital
Идентификатор кодека : A_AC3
Продолжительность : 1 ч. 26 м.
Вид битрейта : Постоянный
Битрейт : 448 Кбит/сек
Каналы : 6 каналов
Channel layout : L R C LFE Ls Rs
Частота : 48,0 КГц
Частота кадров : 31,250 кадров/сек (1536 SPF)
Метод сжатия : С потерями
Размер потока : 276 Мбайт (8%)
Язык : Russian
Service kind : Complete Main
Default : Да
Forced : Нет
Аудио #2
Идентификатор : 3
Формат : AC-3
Формат/Информация : Audio Coding 3
Коммерческое название : Dolby Digital
Идентификатор кодека : A_AC3
Продолжительность : 1 ч. 26 м.
Вид битрейта : Постоянный
Битрейт : 224 Кбит/сек
Каналы : 1 канал
Channel layout : M
Частота : 48,0 КГц
Частота кадров : 31,250 кадров/сек (1536 SPF)
Метод сжатия : С потерями
Размер потока : 138 Мбайт (4%)
Язык : Russian
Service kind : Complete Main
Default : Нет
Forced : Нет
Меню
00:00:00.000 : en:Chapter 1
00:05:05.280 : en:Chapter 2
00:15:29.760 : en:Chapter 3
00:19:57.120 : en:Chapter 4
00:26:34.080 : en:Chapter 5
00:35:35.040 : en:Chapter 6
00:45:14.400 : en:Chapter 7
00:54:09.600 : en:Chapter 8
01:03:27.360 : en:Chapter 9
01:13:56.160 : en:Chapter 10
01:18:39.360 : en:Chapter 11
01:23:09.120 : en:Chapter 12
Релиз от:
[Profile] [PM]
Display posts:    
Reply to topic

Current time is: 19-Jul 10:55

All times are UTC + 3



You cannot post new topics in this forum
You cannot reply to topics in this forum
You cannot edit your posts in this forum
You cannot delete your posts in this forum
You cannot vote in polls in this forum
You cannot attach files in this forum
You cannot download files in this forum