Ярче звёзд [1-13 выпуск из 13] (2023) WEBRip 720p от Files-x

Reply to topic
 
Author Message

bond74 ®

Gender: Male

Longevity: 5 years 3 months

Posts: 2239

Post 08-Oct-2023 10:22

[Quote]

Ярче звёзд Год выпуска: 2023
Оригинальное название: Ярче звёзд
Жанр: ТВ-шоу
Выпущено: Россия, ТНТ
Ведущий: Гарик Мартиросян
О фильме: Новое музыкальное шоу перевоплощений «Ярче звезд» соберет самых талантливых вокалистов, искусных пародистов и прирожденных артистов на одной сцене. Все они будут перевоплощаться в своих любимых исполнителей, а тот, кто сделает это убедительнее остальных, получит внушительный денежный приз и, конечно, всероссийскую славу и признание звёзд эстрады. В каждом выпуске шоу между собой будут соревноваться четыре команды. В каждой из них – по три участника. Совместными усилиями им предстоит показать разные образы одного и того же исполнителя, продемонстрировав все грани таланта: как собственного, так и их кумира. Команда, которая справится с этой задачей лучше остальных, получит денежный приз, а также возможность участия в суперфинале.
Качество: WEBRip 720p
Видео: MPEG-4 AVC, ~ 3500 Кбит/с, 1280x720
Аудио: AC3, 2 ch, 192 Кбит/с
Продолжительность: 1 x ~ 01:35:00
Перевод: Не требуется [Русский]
Cубтитры: нет

Скриншоты




MediaInfo

Общее
Уникальный идентификатор : 178618583392163306200456337386506053571 (0x8660B0162503B311B68AB79AD0CC67C3)
Полное имя : C:\films\Ярче звёзд.2023.WEB-DL 720p.Files-x\01 Ярче звёзд.2023.WEB-DL 720p.Files-x.mkv
Формат : Matroska
Версия формата : Version 2
Размер файла : 4,71 Гбайт
Продолжительность : 1 ч. 35 м.
Режим общего битрейта : Переменный
Общий поток : 7 088 Кбит/сек
Частота кадров : 25,000 кадров/сек
Дата кодирования : 2023-10-07 20:37:00 UTC
Программа кодирования : mkvmerge v7.8.0 ('River Man') 32bit built on Apr 3 2015 12:11:22
Библиотека кодирования : libebml v1.3.1 + libmatroska v1.4.2
Видео
Идентификатор : 1
Формат : AVC
Формат/Информация : Advanced Video Codec
Профиль формата : High@L4.1
Настройки формата : CABAC / 3 Ref Frames
Параметр CABAC формата : Да
Параметр RefFrames формата : 3 кадра
Параметр GOP формата : M=1, N=50
Идентификатор кодека : V_MPEG4/ISO/AVC
Продолжительность : 1 ч. 35 м.
Вид битрейта : Переменный
Битрейт : 6 755 Кбит/сек
Максимальный битрейт : 5 000 Кбит/сек
Ширина : 1 280 пикселей
Высота : 720 пикселей
Соотношение сторон : 16:9
Режим частоты кадров : Постоянный
Частота кадров : 25,000 кадров/сек
Цветовое пространство : YUV
Субдискретизация насыщенности : 4:2:0
Битовая глубина : 8 бит
Тип развёртки : Прогрессивная
Бит/(Пиксели*Кадры) : 0.293
Размер потока : 4,49 Гбайт (95%)
Default : Да
Forced : Нет
Цветовой диапазон : Limited
Основные цвета : BT.709
Характеристики трансфера : BT.709
Аудио
Идентификатор : 2
Формат : AC-3
Формат/Информация : Audio Coding 3
Коммерческое название : Dolby Digital
Идентификатор кодека : A_AC3
Продолжительность : 1 ч. 35 м.
Вид битрейта : Постоянный
Битрейт : 192 Кбит/сек
Каналы : 2 канала
Channel layout : L R
Частота : 44,1 КГц
Частота кадров : 28,711 кадров/сек (1536 SPF)
Метод сжатия : С потерями
Размер потока : 131 Мбайт (3%)
Service kind : Complete Main
Default : Да
Forced : Нет

Внимание! Раздача ведётся путём добавления новых серий

Раздача ведётся путём добавления новых серий, при каждом добавлении создаётся новый торрент. Чтобы начать докачку новой серии, пользователям необходимо сделать следующее:
- Остановить скачивание.
- Удалить старый торрент у себя из клиента (старые серии удалять не надо).
- Скачать новый торрент и запустить его у себя в клиенте вместо старого, при этом указать клиенту путь в старую папку куда и должно происходить скачивание новых серий.
Ваш клиент при этом должен произвести хеширование (проверку) старой папки (если не производит сам - помогите ему сделать это), и будет докачивать только те серии которых у вас ещё нет. Старые серии при этом не удаляются, а продолжают раздаваться!
Релиз от:

Release was prepared by RG Files-x

Related releases "Ярче звёзд" (1):
Added Topic title Size
31 Dec 23  Ярче звёзд [1-13 выпуск из 13] (2023) WEBRip от Files-x 13.66 GB
Find all related releases Ярче звёзд
[Profile] [PM]
Display posts:    
Reply to topic

Current time is: 21-Feb 04:11

All times are UTC + 3



You cannot post new topics in this forum
You cannot reply to topics in this forum
You cannot edit your posts in this forum
You cannot delete your posts in this forum
You cannot vote in polls in this forum
You cannot attach files in this forum
You cannot download files in this forum