Ласт квест [1-9 серии из 9] (2023) WEBRip от Files-х

Reply to topic
 
Author Message

papa1951deda ®

Gender: Male

Longevity: 5 years 3 months

Posts: 1726

Location: Казахстан

Post 03-Nov-2023 21:20

[Quote]

Ласт квест Год выпуска: 2023
Жанр: Драма, триллер
Выпущено: Россия, Кинокомпания "2020 Studio", "Okko"
Режиссер: Пётр Фёдоров мл.
В ролях: Пётр Фёдоров мл., Александра Серзина, Максим Матузный, Анастасия Щеглова, Николай Добрынин, Евдокия Германова, Роман Мадянов, Ростислав Лаврентьев, Ирина Демидкина, Даниил Панков, Ольга Лапшина, Максим Стоянов, Павел Деревянко, Никита Плахотнюк
О сериале: Олег работает риелтором в большом современном городе. Он живёт в одной квартире с женой Леной и сыном Егором, а свободное время любит проводить в компании любовницы Ляли, которая регулярно поставляет ему запрещенные вещества. Однажды Лена уезжает из города и оставляет сына Олегу. Отец делает очередной заказ наркотиков и отправляется к указанной точке вместе с сыном. Вместо своей закладки Олег забирает килограмм кокаина и, столкнувшись с настоящим владельцем товара, скрывается от преследования на машине. В пылу погони Олег не сразу замечает, что Егора в машине нет. Растерянный он едет к Ляле за советом и тайком прячет товар в потрепанном диванчике. Вскоре Олег узнаёт, что украл товар у даркнет-магазина «Белый слон», его владельцы взяли в заложники Егора и ждут свой кокаин обратно. Если отец не вернёт магазину килограмм наркотиков, сыну точно не сдобровать. Олег мчится к Ляле за товаром и понимает, что дивана уже нет, девушка успела его продать.
Качество: WEBRip
Видео: XviD, ~ 1600 Кбит/с, 704x528, 24 кадр/с
Аудио №1: AC3, 6 ch, 384 Кбит/с | С цензурой
Аудио №2: AC3, 6 ch, 384 Кбит/с | Без цензуры (18+)
Продолжительность: 1 x ~ 00:50:00
Перевод: Не требуется
Субтитры: Нет

Скриншоты




MediaInfo

Общее
Полное имя : C:\ШОУ\Ласт квест.2023.WEB-DLRip.Files-x\01. Ласт квест.2023.WEB-DLRip.Files-x.avi
Формат : AVI
Формат/Информация : Audio Video Interleave
Настройки формата : BitmapInfoHeader / WaveFormatEx
Размер файла : 855 Мбайт
Продолжительность : 50 м. 13 с.
Общий поток : 2 380 Кбит/сек
Частота кадров : 24,000 кадра/сек
Программа кодирования : VirtualDubMod 1.5.10.3 | https://www.virtualdub-fr.org || (build 2550/release)
Библиотека кодирования : VirtualDubMod build 2550/release
Видео
Идентификатор : 0
Формат : MPEG-4 Visual
Профиль формата : Advanced Simple@L5
Настройки формата : BVOP1 / Custom Matrix
Параметр BVOP формата : 1
Параметр QPel формата : Нет
Параметр GMC формата : Без точки перехода
Параметр матрицы формата : Выборочная
Идентификатор кодека : XVID
Идентификатор кодека/Подсказка : XviD
Продолжительность : 50 м. 13 с.
Битрейт : 1 598 Кбит/сек
Ширина : 704 пикселя
Высота : 528 пикселей
Соотношение сторон : 4:3
Частота кадров : 24,000 кадра/сек
Цветовое пространство : YUV
Субдискретизация насыщенности : 4:2:0
Битовая глубина : 8 бит
Тип развёртки : Прогрессивная
Метод сжатия : С потерями
Бит/(Пиксели*Кадры) : 0.179
Размер потока : 574 Мбайт (67%)
Библиотека кодирования : XviD 73
Аудио #1
Идентификатор : 1
Формат : AC-3
Формат/Информация : Audio Coding 3
Коммерческое название : Dolby Digital
Идентификатор кодека : 2000
Продолжительность : 50 м. 13 с.
Вид битрейта : Постоянный
Битрейт : 384 Кбит/сек
Каналы : 6 каналов
Channel layout : L R C LFE Ls Rs
Частота : 48,0 КГц
Частота кадров : 31,250 кадров/сек (1536 SPF)
Метод сжатия : С потерями
Размер потока : 138 Мбайт (16%)
Выравнивание : Разделение по промежуткам
Продолжительность промежутка : 42 мс. (1,00 видеокадр)
Время предзагрузки промежутка : 500 мс.
Service kind : Complete Main
Аудио #2
Идентификатор : 2
Формат : AC-3
Формат/Информация : Audio Coding 3
Коммерческое название : Dolby Digital
Идентификатор кодека : 2000
Продолжительность : 50 м. 13 с.
Вид битрейта : Постоянный
Битрейт : 384 Кбит/сек
Каналы : 6 каналов
Channel layout : L R C LFE Ls Rs
Частота : 48,0 КГц
Частота кадров : 31,250 кадров/сек (1536 SPF)
Метод сжатия : С потерями
Размер потока : 138 Мбайт (16%)
Выравнивание : Разделение по промежуткам
Продолжительность промежутка : 42 мс. (1,00 видеокадр)
Время предзагрузки промежутка : 500 мс.
Заголовок : 18+
Service kind : Complete Main

Внимание! Раздача ведётся путём добавления новых серий

Раздача ведётся путём добавления новых серий, при каждом добавлении создаётся новый торрент. Чтобы начать докачку новой серии, пользователям необходимо сделать следующее:
- Остановить скачивание.
- Удалить старый торрент у себя из клиента (старые серии удалять не надо).
- Скачать новый торрент и запустить его у себя в клиенте вместо старого, при этом указать клиенту путь в старую папку куда и должно происходить скачивание новых серий.
Ваш клиент при этом должен произвести хеширование (проверку) старой папки (если не производит сам - помогите ему сделать это), и будет докачивать только те серии которых у вас ещё нет. Старые серии при этом не удаляются, а продолжают раздаваться!
Релиз от:

Release was prepared by RG Files-x

[Profile] [PM]
Display posts:    
Reply to topic

Current time is: 21-Feb 04:09

All times are UTC + 3



You cannot post new topics in this forum
You cannot reply to topics in this forum
You cannot edit your posts in this forum
You cannot delete your posts in this forum
You cannot vote in polls in this forum
You cannot attach files in this forum
You cannot download files in this forum