Настоящий [1 сезон: 1-32 серии из 32] (2023) SATRip от Files-x

Reply to topic
 
Author Message

Nicodem ®

Gender: Male

Longevity: 5 years 3 months

Posts: 1392

Post 05-Nov-2023 15:08

[Quote]

Настоящий
Год выпуска: 2023
Жанр: Детектив
Выпущено: Россия, "Триикс Медиа"
Режиссер: Арменак Назикян
В ролях: Егор Пазенко, Андрей Гульнев, Екатерина Решетникова, Данила Якушев, Инесса Перелыгина-Владимирова, Владимир Маслаков, Николай Балобан, Иван Шарый, Алексей Воскресенский, Александр Казачек (II), Даниил Щипицын, Мария Капустинская, Александр Блинкин, Артём Майор, Арсений Кожемякин, Денис Волков, Василий Рукша, Евгений Антонов, Евгений Такуев, Мария Петрик, Артём Колязин, Михаил Бракоренко, Анна Королева (II), Антон Чернов, Никита Шамов, Александр Самсон, Лора Коробских, Сергей Евдокимов, Антон Кутынов, Дмитрий Олейник, Владимир Петров (V), Дмитрий Соловьёв (II), Андрей Шаповал, Пётр Артамонов, Ольга Зорина (II), Ян Новосельский, Евгений Тележкин, Михаил Шеломенцев, Наталья Бурмистрова, Кирилл Букин, Алексей Диденко
О фильме: Боец спецназа Александр Волков оставил военную службу ради любимой жены Алены и служения Богу. Но новый светлый путь омрачается трагической гибелью Алены, после чего только православная вера помогает Волкову жить. Получив церковный приход в родном городе, отец Александр становится надежной опорой для прихожан не только с духовной точки зрения.

Качество: SATRip
Видео: XviD, ~ 1606 Кбит/с, 720x400, 25 кадр/с
Аудио: AC3, 2 ch, 192 Кбит/с
Продолжительность: 32 x ~ 00:41:20
Перевод: Не требуется
Cубтитры: нет

Скриншоты



MediaInfo

General
Complete name : C:01.Настоящий.s01.E01.(2023).SATRip.by.Nicodem.Files-x.avi
Format : AVI
Format/Info : Audio Video Interleave
File size : 549 MiB
Duration : 42mn 26s
Overall bit rate : 1 808 Kbps
Writing application : VirtualDubMod 1.5.10.3 | www.virtualdub-fr.org || (build 2550/release)
Writing library : VirtualDubMod build 2550/release
Video
ID : 0
Format : MPEG-4 Visual
Format profile : Advanced Simple@L5
Format settings, BVOP : 1
Format settings, QPel : No
Format settings, GMC : No warppoints
Format settings, Matrix : Custom
Codec ID : XVID
Codec ID/Hint : XviD
Duration : 42mn 26s
Bit rate : 1 606 Kbps
Width : 720 pixels
Height : 400 pixels
Display aspect ratio : 16:9
Frame rate : 25.000 fps
Color space : YUV
Chroma subsampling : 4:2:0
Bit depth : 8 bits
Scan type : Progressive
Compression mode : Lossy
Bits/(Pixel*Frame) : 0.223
Stream size : 488 MiB (89%)
Writing library : XviD 73
Audio
ID : 1
Format : AC-3
Format/Info : Audio Coding 3
Mode extension : CM (complete main)
Codec ID : 2000
Duration : 42mn 26s
Bit rate mode : Constant
Bit rate : 192 Kbps
Channel(s) : 2 channels
Channel positions : Front: L R
Sampling rate : 48.0 KHz
Bit depth : 16 bits
Compression mode : Lossy
Stream size : 58.3 MiB (11%)
Alignment : Split accross interleaves
Interleave, duration : 40 ms (1.00 video frame)
Interleave, preload duration : 500 ms

Название серий

1 серия "Возвращение"
2 серия "Пробуждение"
3 серия "Неприкаянный"
4 серия "Афанасий"
5 серия "Нажива"
6 серия "Тарантул"
7 серия "Яд"
8 серия "Грех"
9 серия "Судья"
10 серия "Расплата"
11 серия "Апельсин"
12 серия "Соблазн"
13 серия "Пропавшие"
14 серия "Крещение"
15 серия "Брат"
16 серия "Капкан"
17 серия "Альянс"
18 серия "Дуэт"
19 серия "Покаяние"
20 серия "Ириска"
21 серия "Зов"
22 серия "Отец"
23 серия "Доля"
24 серия "Аноним"
25 серия "Битва"
26 серия "Жертва"
27 серия "Зверь"
28 серия "Рай"
29 серия "Пыль"
30 серия "Любовь"
31 серия "Чума"
32 серия "Крестный ход"

Раздача ведётся путём добавления новых серий

Внимание! Раздача ведётся путём добавления новых серий; при каждом добавлении создаётся новый торрент.
Чтобы начать докачку новой серии, пользователям необходимо сделать следующее:
1. Остановить скачивание;
2. Удалить старый торрент у себя из клиента (старые серии удалять не надо);
3. Скачать новый торрент и запустить его у себя в клиенте вместо старого, при этом указать клиенту путь в старую папку куда и должно происходить скачивание новых серий. Ваш клиент при этом должен произвести хеширование (проверку) старой папки и будет докачивать только те серии, которых у вас ещё нет. Старые серии при этом не удаляются, а продолжают раздаваться! Eсли вы уже удалили старые серии, то предотвратить повторную закачку старых серий можно, отжав галочку в соответствующих местах при запуске нового торрента.
Релиз от:

Release was prepared by RG Files-x

[Profile] [PM]
Display posts:    
Reply to topic

Current time is: 21-Feb 03:38

All times are UTC + 3



You cannot post new topics in this forum
You cannot reply to topics in this forum
You cannot edit your posts in this forum
You cannot delete your posts in this forum
You cannot vote in polls in this forum
You cannot attach files in this forum
You cannot download files in this forum