Выдра [1-8 серия из 8] (2023) HDTVRip от Files-х

Reply to topic
 
Author Message

papa1951deda ®

Gender: Male

Longevity: 5 years 3 months

Posts: 1726

Location: Казахстан

Post 14-Nov-2023 18:45

[Quote]

Выдра Год выпуска: 2023
Жанр: Детектив, мелодрама
Выпущено: Россия, Амедиа Продакшн
Режиссер: Екатерина Двигубская
В ролях: Кристина Казинская, Максим Битюков, Алисия Разумовская, Николай Ковбас, Алексей Степанов, Роман Перелыгин, Константин Майоров, Алиса Прохорова, Ярослав Ефременко, Софья Селезнёва, Наталья Моисеева, Мария Михалкова-Кончаловская, Анна Небо, Наталия Аринбасарова, Ольга Старостина, Ксения Ерохина, Татьяна Косач-Брындина
О сериале: Сотрудница органов опеки Лера Движкова выросла в детдоме, поэтому по-настоящему неравнодушна к своему делу. Лера непримирима, когда речь идет о родительской безответственности, ее визитов боятся и за глаза называют «выдрой». Лера поддерживает соседскую семью: Риту и ее дочку Алсу. Когда Рита пропадает, Лера воспринимает эту трагедию как личную и предпринимает все, чтобы скорее найти подругу.

Качество: HDTVRip
Видео: XviD, ~ 1600 Кбит/с, 720x400
Аудио: AC3, 2 ch, 192 Кбит/с
Продолжительность: 8 x ~ 00:48:00
Язык: Русский

Скриншоты


MediaInfo

Общее
Полное имя : C:\films\Выдра.2023.HDTVRip .Files-x\04. Выдра.2023.HDTVRip .BLACKTIR.Files-x.avi
Формат : AVI
Формат/Информация : Audio Video Interleave
Настройки формата : BitmapInfoHeader / WaveFormatEx
Размер файла : 622 Мбайт
Продолжительность : 48 м. 21 с.
Общий поток : 1 799 Кбит/сек
Частота кадров : 25,000 кадров/сек
Программа кодирования : VirtualDubMod 1.5.10.3 | https://www.virtualdub-fr.org || (build 2550/release)
Библиотека кодирования : VirtualDubMod build 2550/release
Видео
Идентификатор : 0
Формат : MPEG-4 Visual
Профиль формата : Advanced Simple@L5
Настройки формата : BVOP1 / Custom Matrix
Параметр BVOP формата : 1
Параметр QPel формата : Нет
Параметр GMC формата : Без точки перехода
Параметр матрицы формата : Выборочная
Идентификатор кодека : XVID
Идентификатор кодека/Подсказка : XviD
Продолжительность : 48 м. 21 с.
Битрейт : 1 598 Кбит/сек
Ширина : 720 пикселей
Высота : 400 пикселей
Соотношение сторон : 16:9
Частота кадров : 25,000 кадров/сек
Цветовое пространство : YUV
Субдискретизация насыщенности : 4:2:0
Битовая глубина : 8 бит
Тип развёртки : Прогрессивная
Метод сжатия : С потерями
Бит/(Пиксели*Кадры) : 0.222
Размер потока : 553 Мбайт (89%)
Библиотека кодирования : XviD 73
Аудио
Идентификатор : 1
Формат : AC-3
Формат/Информация : Audio Coding 3
Коммерческое название : Dolby Digital
Идентификатор кодека : 2000
Продолжительность : 48 м. 21 с.
Вид битрейта : Постоянный
Битрейт : 192 Кбит/сек
Каналы : 2 канала
Channel layout : L R
Частота : 48,0 КГц
Частота кадров : 31,250 кадров/сек (1536 SPF)
Метод сжатия : С потерями
Размер потока : 66,4 Мбайт (11%)
Выравнивание : Разделение по промежуткам
Продолжительность промежутка : 40 мс. (1,00 видеокадр)
Время предзагрузки промежутка : 500 мс.
Service kind : Complete Main

Внимание! Раздача ведётся путём добавления новых серий

Раздача ведётся путём добавления новых серий, при каждом добавлении создаётся новый торрент. Чтобы начать докачку новой серии, пользователям необходимо сделать следующее:
- Остановить скачивание.
- Удалить старый торрент у себя из клиента (старые серии удалять не надо).
- Скачать новый торрент и запустить его у себя в клиенте вместо старого, при этом указать клиенту путь в старую папку куда и должно происходить скачивание новых серий.
Ваш клиент при этом должен произвести хеширование (проверку) старой папки (если не производит сам - помогите ему сделать это), и будет докачивать только те серии которых у вас ещё нет. Старые серии при этом не удаляются, а продолжают раздаваться!
Релиз от:

Release was prepared by RG Files-x

[Profile] [PM]
Display posts:    
Reply to topic

Current time is: 21-Feb 03:57

All times are UTC + 3



You cannot post new topics in this forum
You cannot reply to topics in this forum
You cannot edit your posts in this forum
You cannot delete your posts in this forum
You cannot vote in polls in this forum
You cannot attach files in this forum
You cannot download files in this forum