Полярный [3 сезон: 1-16 серии из 16] (2023) HDTV 1080p от Generalfilm

Reply to topic
 
Author Message

White Smoke ®

Gender: Male

Longevity: 5 years 7 months

Posts: 271

Post 29-Nov-2023 17:03

[Quote]

Полярный Год выпуска: 2023
Жанр: комедия
Выпущено:Россия ТНТ-PREMIER Studios
Режиссер:Илья Аксёнов
В ролях: Михаил Пореченков, Иван Охлобыстин, Катерина Шпица, Ян Цапник, Александр Ратников, Елена Воробей, Мария Кравченко, Софья Зайка, Карина Зверева, Сергей Козик, Антон Богданов, Жаргал Бадмацыренов, Светлана Листова, Борис Каморзин, Денис Пьянов, Юрий Назаров, Филипп Дьячков, Демис Карибидис, Ренат Мухамбаев, Сергей Черданцев, Ярослав Печенин, Александр Аноприков, Иван Алексеев (III), Алексей Онежен, Дмитрий Колчин, Лариса Белодед, Дмитрий Пастер
О фильме: Витя теперь не просто лучший фермер Заполярья, но и счастливый отец. Однако насладиться семейной идиллией снова не получится. По личной просьбе губернатора Витя становится мэром Полярного. Витя и так не восторге от новой должности, а тут ещё выясняется, что предыдущий мэр оставил после себя многомиллионную дыру в городском бюджете. Витя хочет сложить с себя полномочия, но когда понимает, что перешёл дорогу влиятельному и нечистому на руку бизнесмену Ломаеву, то решает остаться на посту мэра Полярного, чтобы спасти его жителей от выселения из собственных домов. Но беда не приходит одна. В третьем сезоне Вите предстоит познакомиться с мамой Полины – преподавателем литературы на пенсии. Однако даже новый высокий пост не помогает Громову соответствовать высоким стандартам его тещи.
Качество: HDTV 1080p
Видео: MPEG-4 AVC, 1920x1080 (16:9), 25.000 fps, 7 051 kb/s (0.136 bit/pixel)
Аудио: AC3, 2 ch, 192 кбит/с, 48 Khz
Продолжительность: ~ 00:24:12
Перевод : Не требуется
Cубтитры: нет

Скриншоты



MediaInfo

General
Unique ID : 202169268145072633361682333722117938116 (0x9818627E07567C66A604674BEAC01BC4)
Complete name : D:\Запись ТВ\Polyarnyj S03 2023 HDTV 1080p.R.G.Generalfilm\Polyarnyj.s03.e01.2023.HDTV 1080p.by.White Smoke.R.G.Generalfilm.mkv
Format : Matroska
Format version : Version 4
File size : 1.21 GiB
Duration : 24 min 12 s
Overall bit rate mode : Constant
Overall bit rate : 7 163 kb/s
Frame rate : 25.000 FPS
Movie name : Polyarnyj.s03.e01.2023.HDTV 1080p.by.White Smoke.R.G.Generalfilm.mkv
Encoded date : 2023-11-30 13:19:54 UTC
Writing application : mkvmerge v6.8.0 ('Theme for Great Cities') 64bit built on Mar 2 2014 21:34:26
Writing library : libebml v1.3.0 + libmatroska v1.4.1
Video
ID : 1
Format : AVC
Format/Info : Advanced Video Codec
Format profile : High@L4.1
Format settings : CABAC / 4 Ref Frames
Format settings, CABAC : Yes
Format settings, Reference : 4 frames
Codec ID : V_MPEG4/ISO/AVC
Duration : 24 min 12 s
Bit rate mode : Constant
Bit rate : 7 051 kb/s
Width : 1 920 pixels
Height : 1 080 pixels
Display aspect ratio : 16:9
Frame rate mode : Constant
Frame rate : 25.000 FPS
Standard : PAL
Color space : YUV
Chroma subsampling : 4:2:0
Bit depth : 8 bits
Scan type : Progressive
Bits/(Pixel*Frame) : 0.136
Stream size : 1.15 GiB (95%)
Default : Yes
Forced : No
Color range : Limited
Color primaries : BT.709
Transfer characteristics : BT.709
Matrix coefficients : BT.709
Audio
ID : 2
Format : AC-3
Format/Info : Audio Coding 3
Commercial name : Dolby Digital
Codec ID : A_AC3
Duration : 24 min 12 s
Bit rate mode : Constant
Bit rate : 192 kb/s
Channel(s) : 2 channels
Channel layout : L R
Sampling rate : 48.0 kHz
Frame rate : 31.250 FPS (1536 SPF)
Compression mode : Lossy
Stream size : 33.3 MiB (3%)
Service kind : Complete Main
Default : Yes
Forced : No

Раздача ведётся путём добавления новых серий

Внимание! Раздача ведётся путём добавления новых серий; при каждом добавлении создаётся новый торрент.
Чтобы начать докачку новой серии, пользователям необходимо сделать следующее:
1. Остановить скачивание;
2. Удалить старый торрент у себя из клиента (старые серии удалять не надо);
3. Скачать новый торрент и запустить его у себя в клиенте вместо старого, при этом указать клиенту путь в старую папку куда и должно происходить скачивание новых серий. Ваш клиент при этом должен произвести хеширование (проверку) старой папки и будет докачивать только те серии, которых у вас ещё нет. Старые серии при этом не удаляются, а продолжают раздаваться! Eсли вы уже удалили старые серии, то предотвратить повторную закачку старых серий можно, отжав галочку в соответствующих местах при запуске нового торрента.
Релиз от:
[Profile] [PM]

HardwareMining

Gender: Male

Longevity: 4 years 8 months

Posts: 626

Post 07-Dec-2023 17:56 (after 8 days)

[Quote]

White Smoke
Пасиб тебе за 3 качественных сезона
[Profile] [PM]
Display posts:    
Reply to topic

Current time is: 24-Jun 06:55

All times are UTC + 3



You cannot post new topics in this forum
You cannot reply to topics in this forum
You cannot edit your posts in this forum
You cannot delete your posts in this forum
You cannot vote in polls in this forum
You cannot attach files in this forum
You cannot download files in this forum