Пять процентов (2023) WEB-DLRip-AVC от Files-х | OKKO

Reply to topic
 
Author Message

Серый1779 ®

Gender: Male

Longevity: 5 years 3 months

Posts: 3378

Location: Украина

Post 19-Jan-2024 21:26

[Quote]

Пять процентов
Год выпуска: 2023
Жанр: Комедия
Выпущено: Россия, Кинокомпания "АСДС"
Режиссер: Дмитрий Светозаров
В ролях: Юрий Стоянов, Виктор Сухоруков, Юрий Ицков, Ирина Цветкова, Анна Захарова, Николай Смирнов, Владимир Кутейников, Наталья Парашкина, Эра Зиганшина, Дмитрий Лысенков
О фильме: Николай Фомич Ферапонтов — скульптор-монументалист и «классик соцреализма», который прожил жизнь далеко не безгрешную. Однако, весь успех остался в далеком прошлом, и на старости лет ему приходится сводить концы с концами, перебиваясь случайными заказами. Все меняется, когда на его пороге появляется молодой искусствовед Мясоедов и находит в подсобке картины, в которых он неожиданно узнает шедевры изобразительного искусства! Не особо представляя настоящее происхождение картин, Николай Фомич называет себя их автором, и с этого момента начинается охота за деньгами и славой.

Качество: WEB-DLRip-AVC
Видео: MPEG-4 AVC, ~ 1690 Кбит/с, 1024x432, 25 кадр/с
Аудио: AC3, 2 ch, 192 Кбит/с
Продолжительность: 01:43:48
Перевод: Не требуется
Субтитры: Нет

Скриншоты



MediaInfo

General
Unique ID : 202505076364611739245004223187863578409 (0x98590F1DA5392F658226A9BE8A01A729)
Complete name : F:\Пять процентов.(2023).WEB-DLRip.(AVC).by.Серый1779.Files-x.mkv
Format : Matroska
Format version : Version 2
File size : 1.36 GiB
Duration : 1 h 43 min
Overall bit rate : 1 882 kb/s
Encoded date : UTC 2024-01-19 15:56:53
Writing application : mkvmerge v7.8.0 ('River Man') 32bit built on Apr 3 2015 12:11:22
Writing library : libebml v1.3.1 + libmatroska v1.4.2
Video
ID : 1
Format : AVC
Format/Info : Advanced Video Codec
Format profile : High@L4.1
Format settings : CABAC / 9 Ref Frames
Format settings, CABAC : Yes
Format settings, RefFrames : 9 frames
Codec ID : V_MPEG4/ISO/AVC
Duration : 1 h 43 min
Bit rate : 1 690 kb/s
Width : 1 024 pixels
Height : 432 pixels
Display aspect ratio : 2.40:1
Frame rate mode : Constant
Frame rate : 24.000 FPS
Color space : YUV
Chroma subsampling : 4:2:0
Bit depth : 8 bits
Scan type : Progressive
Bits/(Pixel*Frame) : 0.159
Stream size : 1.20 GiB (88%)
Writing library : x264 core 146 r2538 121396c
Encoding settings : cabac=1 / ref=9 / deblock=1:-2:-1 / analyse=0x3:0x133 / me=umh / subme=9 / psy=1 / psy_rd=1.00:0.15 / mixed_ref=1 / me_range=32 / chroma_me=1 / trellis=2 / 8x8dct=1 / cqm=0 / deadzone=21,11 / fast_pskip=0 / chroma_qp_offset=-3 / threads=18 / lookahead_threads=3 / sliced_threads=0 / nr=0 / decimate=1 / interlaced=0 / bluray_compat=0 / constrained_intra=0 / bframes=9 / b_pyramid=2 / b_adapt=2 / b_bias=0 / direct=3 / weightb=1 / open_gop=0 / weightp=2 / keyint=250 / keyint_min=23 / scenecut=40 / intra_refresh=0 / rc=2pass / mbtree=0 / bitrate=1690 / ratetol=1.0 / qcomp=0.60 / qpmin=0 / qpmax=69 / qpstep=4 / cplxblur=20.0 / qblur=0.5 / ip_ratio=1.40 / pb_ratio=1.30 / aq=2:1.00
Default : Yes
Forced : No
Color range : Limited
Color primaries : BT.709
Transfer characteristics : BT.709
Matrix coefficients : BT.709
Audio
ID : 2
Format : AC-3
Format/Info : Audio Coding 3
Format settings, Endianness : Big
Codec ID : A_AC3
Duration : 1 h 43 min
Bit rate mode : Constant
Bit rate : 192 kb/s
Channel(s) : 2 channels
Channel positions : Front: L R
Sampling rate : 48.0 kHz
Frame rate : 31.250 FPS (1536 SPF)
Bit depth : 16 bits
Compression mode : Lossy
Stream size : 143 MiB (10%)
Service kind : Complete Main
Default : Yes
Forced : No
Релиз от:

Release was prepared by RG Files-x

Related releases "Пять процентов" (1):
Added Topic title Size
20 Jan 24  Пять процентов (2023) WEB-DLRip от Generalfilm | КПК 1 393 MB
Find all related releases Пять процентов
[Profile] [PM]
Display posts:    
Reply to topic

Current time is: 21-Feb 05:29

All times are UTC + 3



You cannot post new topics in this forum
You cannot reply to topics in this forum
You cannot edit your posts in this forum
You cannot delete your posts in this forum
You cannot vote in polls in this forum
You cannot attach files in this forum
You cannot download files in this forum