Очевидное невероятное [1-7 серии из 10] (2023) WEB-DLRip-AVC от Files-x

Reply to topic
 
Author Message

bond74 ®

Gender: Male

Longevity: 5 years 3 months

Posts: 2239

Post 27-Jan-2024 00:21

[Quote]

Очевидное невероятное Год выпуска: 2024
Жанр: Комедия, фантастика
Выпущено: Россия, Кинокомпания "Медиаслово", "Okko"
Режиссер: Александр Войтинский
В ролях: Артём Быстров, Максим Лагашкин, Светлана Ходченкова, Павел Любимцев, Илья Виногорский, Александр Нестеров, Екатерина Кабак, Антон Морозов, Алиса Лозовская, Александр Цыганов, Ирина Крючкова, Степан Летковский, Владимир Якимов, Денис Козинец, Любовь Тервинская
О фильме: На первый взгляд, Великий Гусляр кажется ничем не примечательным городком, но на деле это самое необычное место на планете. Только здесь можно без проблем пообщаться с инопланетными существами, поговорить с животными, телепортироваться в другие измерения и даже попутешествовать во времени! Местные жители привыкли к аномалиям и спокойно реагируют даже на самые невероятные происшествия. Единственное, что может испортить день гуслярцу - это надоедливый турист, желающий заработать на эксклюзивном материале об обнаруженных чудесах. Из-за нового мэра Белинского, решившего превратить город в туристический центр, размеренный быт жителей Великого Гусляра оказывается под угрозой. Чтобы сохранить покой и независимость, обитатели необычной местности решают убедить мэра, что в городе не происходит ничего экстраординарного. Но так ли это просто, как кажется на первый взгляд?
Качество: WEB-DLRip-AVC
Видео: MPEG-4 AVC, ~ 1600 Кбит/с, 7200x304, 25 кадр/с
Аудио: AC3, 6 ch, 384 Кбит/с
Продолжительность: 6 х ~ 00:29:56
Перевод: Не требуется
Субтитры: Нет

Скриншоты




MediaInfo

Общее
Уникальный идентификатор : 253215570327720163541671575961657503269 (0xBE7F8B80657FD2D3B20B3756907D6E25)
Полное имя : C:\ШОУ\Очевидное невероятное.2024.WEB-DLRip.Files-x\02. Очевидное невероятное.2024.WEB-DLRip.Files-x.mkv
Формат : Matroska
Версия формата : Version 2
Размер файла : 331 Мбайт
Продолжительность : 23 м. 18 с.
Общий поток : 1 986 Кбит/сек
Частота кадров : 25,000 кадров/сек
Дата кодирования : 2024-01-26 15:43:40 UTC
Программа кодирования : mkvmerge v7.8.0 ('River Man') 32bit built on Apr 3 2015 12:11:22
Библиотека кодирования : libebml v1.3.1 + libmatroska v1.4.2
Видео
Идентификатор : 1
Формат : AVC
Формат/Информация : Advanced Video Codec
Профиль формата : High@L4.1
Настройки формата : CABAC / 9 Ref Frames
Параметр CABAC формата : Да
Параметр RefFrames формата : 9 кадров
Идентификатор кодека : V_MPEG4/ISO/AVC
Продолжительность : 23 м. 18 с.
Битрейт : 1 600 Кбит/сек
Ширина : 720 пикселей
Высота : 304 пикселя
Соотношение сторон : 2,35:1
Режим частоты кадров : Постоянный
Частота кадров : 25,000 кадров/сек
Цветовое пространство : YUV
Субдискретизация насыщенности : 4:2:0
Битовая глубина : 8 бит
Тип развёртки : Прогрессивная
Бит/(Пиксели*Кадры) : 0.292
Размер потока : 260 Мбайт (79%)
Библиотека кодирования : x264 core 146 r2538 121396c
Настройки программы : cabac=1 / ref=9 / deblock=1:-2:-1 / analyse=0x3:0x133 / me=umh / subme=9 / psy=1 / psy_rd=1.00:0.15 / mixed_ref=1 / me_range=32 / chroma_me=1 / trellis=2 / 8x8dct=1 / cqm=0 / deadzone=21,11 / fast_pskip=0 / chroma_qp_offset=-3 / threads=18 / lookahead_threads=2 / sliced_threads=0 / nr=0 / decimate=1 / interlaced=0 / bluray_compat=0 / constrained_intra=0 / bframes=9 / b_pyramid=2 / b_adapt=2 / b_bias=0 / direct=1 / weightb=1 / open_gop=0 / weightp=2 / keyint=250 / keyint_min=25 / scenecut=40 / intra_refresh=0 / rc=2pass / mbtree=0 / bitrate=1600 / ratetol=1.0 / qcomp=0.60 / qpmin=0 / qpmax=69 / qpstep=4 / cplxblur=20.0 / qblur=0.5 / ip_ratio=1.40 / pb_ratio=1.30 / aq=2:1.00
Default : Да
Forced : Нет
Цветовой диапазон : Limited
Основные цвета : BT.709
Характеристики трансфера : BT.709
Коэффициенты матрицы : BT.709
Аудио
Идентификатор : 2
Формат : AC-3
Формат/Информация : Audio Coding 3
Коммерческое название : Dolby Digital
Идентификатор кодека : A_AC3
Продолжительность : 23 м. 18 с.
Вид битрейта : Постоянный
Битрейт : 384 Кбит/сек
Каналы : 6 каналов
Channel layout : L R C LFE Ls Rs
Частота : 48,0 КГц
Частота кадров : 31,250 кадров/сек (1536 SPF)
Метод сжатия : С потерями
Размер потока : 64,0 Мбайт (19%)
Service kind : Complete Main
Default : Да
Forced : Нет

Раздача ведётся путём добавления новых серий

Внимание! Раздача ведётся путём добавления новых серий; при каждом добавлении создаётся новый торрент.
Чтобы начать докачку новой серии, пользователям необходимо сделать следующее:
1. Остановить скачивание;
2. Удалить старый торрент у себя из клиента (старые серии удалять не надо);
3. Скачать новый торрент и запустить его у себя в клиенте вместо старого, при этом указать клиенту путь в старую папку куда и должно происходить скачивание новых серий. Ваш клиент при этом должен произвести хеширование (проверку) старой папки и будет докачивать только те серии, которых у вас ещё нет. Старые серии при этом не удаляются, а продолжают раздаваться! Eсли вы уже удалили старые серии, то предотвратить повторную закачку старых серий можно, отжав галочку в соответствующих местах при запуске нового торрента.
Релиз от:

Release was prepared by RG Files-x

[Profile] [PM]
Display posts:    
Reply to topic

Current time is: 21-Feb 05:42

All times are UTC + 3



You cannot post new topics in this forum
You cannot reply to topics in this forum
You cannot edit your posts in this forum
You cannot delete your posts in this forum
You cannot vote in polls in this forum
You cannot attach files in this forum
You cannot download files in this forum