Шеф. Мужская работа [6 сезон: 1-30 серия из 30] (2023) WEBRip от Files-x

Reply to topic
 
Author Message

bond74 ®

Gender: Male

Longevity: 5 years 3 months

Posts: 2239

Post 29-Jan-2024 23:13

[Quote]

Шеф. Мужская работа Год выпуска: 2023
Жанр: Боевик, детектив, криминал
Выпущено: Россия, Кинокомпания "Триикс Медиа"
Режиссер: Александр Черняев, Арменак Назикян
В ролях: Андрей Чубченко, Дмитрий Сутырин, Эльдар Лебедев, Кирилл Полухин, Александр Солоненко, Владимир Литвинов, Геннадий Смирнов, Евгения Игумнова, Дмитрий Петрухин, Пётр Логачёв, Мария Нефедова, Олег Метелев, Анна Дулова, Сергей Евдокимов, Виктория Плоп, Руслан Бальбуциев, Тата Хачатрян, Евгения Глотова, Кристина Бойцова, Валентин Воробьёв, Юйфэн Цзя, Чжао Цзяньин, Ивэй Чжоу, Сергей Комаров, Владислав Орлов, Игорь Кулачко, Дмитрий Соловьёв, Александр Удальцов, Алексей Воскресенский, Владимир Сута, Игорь Угаров, Кирилл Букин, Мария Вершинина, Тина Тарусина, Эдуард Смирнов, Денис Волков, Евгений Совастенков, Илья Божко, Антон Сычёв
О фильме: После громкого скандала генерал Виктор Расторгуев возвращается в Санкт-Петербург на должность начальника РУВД. Его появление в Северной столице вызывает странную реакцию в верхах криминалитета. Всех авторитетов города уже давно теснит некий Граф, которого никто из них в глаза не видел. Тем временем в город приезжает Тихомиров, который последние пару лет жил на Карибах. Когда Тихомиров и его любимая женщина Арина встречаются с её сестрой, неизвестные звонят Графу и говорят: «Вы не поверите, кого мы сейчас видим…».

Качество: WEBRip
Видео:XviD, ~ 1600 Кбит/с, 720x400, 25 кадр/с
Аудио: AC3, 2 ch, 192 Кбит/с
Продолжительность: 1 х ~ 00:48:17
Перевод: Не требуется
Субтитры: Нет

Скриншоты




MediaInfo

Общее
Полное имя : D:\films\Шеф.s06.2024.WEB-DLRip.Files-x\02 Шеф.s06.2024.WEB-DLRip.Files-x.avi
Формат : AVI
Формат/Информация : Audio Video Interleave
Настройки формата : BitmapInfoHeader / WaveFormatEx
Размер файла : 630 Мбайт
Продолжительность : 49 м. 0 с.
Общий поток : 1 797 Кбит/сек
Частота кадров : 25,000 кадров/сек
Программа кодирования : VirtualDubMod 1.5.10.3 | www.virtualdub-fr.org || (build 2550/release)
Библиотека кодирования : VirtualDubMod build 2550/release
Видео
Идентификатор : 0
Формат : MPEG-4 Visual
Профиль формата : Advanced Simple@L5
Настройки формата : BVOP1 / Custom Matrix
Параметр BVOP формата : 1
Параметр QPel формата : Нет
Параметр GMC формата : Без точки перехода
Параметр матрицы формата : Выборочная
Идентификатор кодека : XVID
Идентификатор кодека/Подсказка : XviD
Продолжительность : 49 м. 0 с.
Битрейт : 1 596 Кбит/сек
Ширина : 720 пикселей
Высота : 400 пикселей
Соотношение сторон : 16:9
Частота кадров : 25,000 кадров/сек
Цветовое пространство : YUV
Субдискретизация насыщенности : 4:2:0
Битовая глубина : 8 бит
Тип развёртки : Прогрессивная
Метод сжатия : С потерями
Бит/(Пиксели*Кадры) : 0.222
Размер потока : 559 Мбайт (89%)
Библиотека кодирования : XviD 73
Аудио
Идентификатор : 1
Формат : AC-3
Формат/Информация : Audio Coding 3
Коммерческое название : Dolby Digital
Идентификатор кодека : 2000
Продолжительность : 49 м. 0 с.
Вид битрейта : Постоянный
Битрейт : 192 Кбит/сек
Каналы : 2 канала
Channel layout : L R
Частота : 48,0 КГц
Частота кадров : 31,250 кадров/сек (1536 SPF)
Метод сжатия : С потерями
Размер потока : 67,3 Мбайт (11%)
Выравнивание : Разделение по промежуткам
Продолжительность промежутка : 40 мс. (1,00 видеокадр)
Время предзагрузки промежутка : 500 мс.
Service kind : Complete Main

Раздача ведётся путём добавления новых серий

Внимание! Раздача ведётся путём добавления новых серий; при каждом добавлении создаётся новый торрент.
Чтобы начать докачку новой серии, пользователям необходимо сделать следующее:
1. Остановить скачивание;
2. Удалить старый торрент у себя из клиента (старые серии удалять не надо);
3. Скачать новый торрент и запустить его у себя в клиенте вместо старого, при этом указать клиенту путь в старую папку куда и должно происходить скачивание новых серий. Ваш клиент при этом должен произвести хеширование (проверку) старой папки и будет докачивать только те серии, которых у вас ещё нет. Старые серии при этом не удаляются, а продолжают раздаваться! Eсли вы уже удалили старые серии, то предотвратить повторную закачку старых серий можно, отжав галочку в соответствующих местах при запуске нового торрента.
Релиз от:

Release was prepared by RG Files-x

[Profile] [PM]
Display posts:    
Reply to topic

Current time is: 21-Feb 03:43

All times are UTC + 3



You cannot post new topics in this forum
You cannot reply to topics in this forum
You cannot edit your posts in this forum
You cannot delete your posts in this forum
You cannot vote in polls in this forum
You cannot attach files in this forum
You cannot download files in this forum