Лига городов[2 сезон: 1-15 выпуск ИЗ 15] (2024) WEBRip от Files-x

Reply to topic
 
Author Message

bond74 ®

Gender: Male

Longevity: 5 years 6 months

Posts: 2399

Post 03-Feb-2024 18:04

[Quote]

Лига городов Год выпуска: 2023
Жанр: ТВ-шоу
Выпущено: Россия, ТНТ
Ведущий: Тимур Родригез
Описание: Новый юмористический проект телеканала ТНТ и компании АМиК, в котором команды будут бороться за звание чемпиона сезона и приз в десять миллионов рублей. Одержать победу в серьезной юмористической схватке коллективам помогут наставники, гуру юмора — Сергей Светлаков, Марина Кравец, Алексей Щербаков и Артем Калайджян. Каждый из них отберет под свое крыло команды, с которыми и будет «работать» дальше. В первом отборочном туре примут участие шестьдесят две команды из семидесяти трех городов России, Беларуси и Казахстана. Во второй тур пройдет лишь половина из них. Далее состоится этап баттлов, в котором между собой будут соревноваться команды каждого наставника до тех пор, пока в проекте не останется четыре финалиста. Среди них определится победитель сезона.
Качество: WEBRip
Видео: XviD, 1600 Кбит/с, 720x400
Аудио: AC3, 2 ch, 192 Кбит/с
Продолжительность: 1 x ~ 01:37:57
Перевод: Не требуется
Субтитры: Нет

Скриншоты



MediaInfo

Общее
Полное имя : D:\films\Лига городов.S02.2024.WEB-DLRip.Files-x\01. Лига городов.S02.2024.WEB-DLRip.Files-x.avi
Формат : AVI
Формат/Информация : Audio Video Interleave
Настройки формата : BitmapInfoHeader / WaveFormatEx
Размер файла : 1,20 Гбайт
Продолжительность : 1 ч. 35 м.
Общий поток : 1 800 Кбит/сек
Частота кадров : 25,000 кадров/сек
Программа кодирования : VirtualDubMod 1.5.10.3 | www.virtualdub-fr.org || (build 2550/release)
Библиотека кодирования : VirtualDubMod build 2550/release
Видео
Идентификатор : 0
Формат : MPEG-4 Visual
Профиль формата : Advanced Simple@L5
Настройки формата : BVOP1 / Custom Matrix
Параметр BVOP формата : 1
Параметр QPel формата : Нет
Параметр GMC формата : Без точки перехода
Параметр матрицы формата : Выборочная
Идентификатор кодека : XVID
Идентификатор кодека/Подсказка : XviD
Продолжительность : 1 ч. 35 м.
Битрейт : 1 598 Кбит/сек
Ширина : 720 пикселей
Высота : 400 пикселей
Соотношение сторон : 16:9
Частота кадров : 25,000 кадров/сек
Цветовое пространство : YUV
Субдискретизация насыщенности : 4:2:0
Битовая глубина : 8 бит
Тип развёртки : Прогрессивная
Метод сжатия : С потерями
Бит/(Пиксели*Кадры) : 0.222
Размер потока : 1,06 Гбайт (89%)
Библиотека кодирования : XviD 73
Аудио
Идентификатор : 1
Формат : AC-3
Формат/Информация : Audio Coding 3
Коммерческое название : Dolby Digital
Идентификатор кодека : 2000
Продолжительность : 1 ч. 35 м.
Вид битрейта : Постоянный
Битрейт : 192 Кбит/сек
Каналы : 2 канала
Channel layout : L R
Частота : 48,0 КГц
Частота кадров : 31,250 кадров/сек (1536 SPF)
Метод сжатия : С потерями
Размер потока : 131 Мбайт (11%)
Выравнивание : Разделение по промежуткам
Продолжительность промежутка : 40 мс. (1,00 видеокадр)
Время предзагрузки промежутка : 500 мс.
Service kind : Complete Main
Service kind : Complete Main

Внимание! Раздача ведётся путём добавления новых серий

Раздача ведётся путём добавления новых серий, при каждом добавлении создаётся новый торрент. Чтобы начать докачку новой серии, пользователям необходимо сделать следующее:
- Остановить скачивание.
- Удалить старый торрент у себя из клиента (старые серии удалять не надо).
- Скачать новый торрент и запустить его у себя в клиенте вместо старого, при этом указать клиенту путь в старую папку куда и должно происходить скачивание новых серий.
Ваш клиент при этом должен произвести хеширование (проверку) старой папки (если не производит сам - помогите ему сделать это), и будет докачивать только те серии которых у вас ещё нет. Старые серии при этом не удаляются, а продолжают раздаваться!
Релиз от:

Release was prepared by RG Files-x

[Profile] [PM]
Display posts:    
Reply to topic

Current time is: 27-May 19:53

All times are UTC + 3



You cannot post new topics in this forum
You cannot reply to topics in this forum
You cannot edit your posts in this forum
You cannot delete your posts in this forum
You cannot vote in polls in this forum
You cannot attach files in this forum
You cannot download files in this forum