Тайны следствия [22 сезон: 1-16 серии из 16] (2022) WEBRip от Generalfilm | КПК

Reply to topic
 
Author Message

mjjhec ®

Gender: Male

Longevity: 5 years 3 months

Posts: 2000

Location: СССР

Post 10-Feb-2024 10:58

[Quote]

Тайны следствия 22 Год выпуска: 2022
Жанр: Драма, криминал, детектив
Выпущено: Россия, Кинокомпания «Норд фильм», Студия «Единственный дубль»
Режиссер: Максим Демченко
В ролях: Анна Ковальчук, Игорь Николаев (II), Александр Новиков, Алексей Комашко, Ольга Павловец, Вячеслав Захаров, Андрей Шарков, Степан Пивкин, Наталья Ионова, Злата Ковальчук, Дмитрий Агафонов, Александр Носик, Павел Савинков, Мирослав Малич, Дарья Фекленко, Вадим Андреев, Дмитрий Мазуров.
О фильме: За дело вновь берется самый обаятельный и авторитетный следователь Мария Швецова! Новый сезон – и новые тайны, которые предстоит расследовать подполковнику юстиции Марии Швецовой вместе с командой высококлассных специалистов. Кто причастен к дерзкому убийству бизнесмена, свидетелем которого стал начальник убойного отдела Кораблев? За что была убита звездная пара известных фигуристов? Кто устроил расправу над дочерью влиятельного предпринимателя? За что лишили жизни гражданина Аргентины? Как произошло загадочное убийство на съемочной площадке фильма? Чтобы раскрыть дела, Марии Сергеевне придется включать свою знаменитую интуицию на полную мощность. Из декрета возвращается Людмила Колонкова. Полковник Ковин (Вячеслав Захаров) направляет ее в отдел Швецовой для подкрепления. Колонкова рада снова быть в строю, но разрывается между работой и маленьким сыном, так что Швецовой приходится не раз прикрывать подругу. Дочь Марии Сергеевны Злата преподносит маме очередной сюрприз. Вместе со своим молодым человеком Злата начинает вести журналистские расследования. Швецова не приветствует новое увлечение дочери, но девушку не останавливают даже первые стычки с миром криминала… В личной жизни у Швецовой тоже все непросто. Платонов наконец решается сделать Марии Сергеевне предложение, но внезапно на горизонте появляется ее бывший муж – Дмитрий Луганский.
Качество: WEBRip | КПК
Видео: H.264, 640x360 (16:9), 25 fps, 400 kb/s
Аудио: AAC, 48 kHz, 2 ch, 128 kb/s
Продолжительность: 16 x ~00:50:00
Перевод: Не требуется [Русский]

Скриншоты


MediaInfo

Complete name : F:\Rip\Tajni.sledstviya.S22.by.mjjhec\Tajny.sledstviya-22.03.serya.WEBRip.mp4
Format : MPEG-4
Format profile : Base Media
Codec ID : isom (isom/avc1)
File size : 200 MiB
Duration : 52 min 42 s
Overall bit rate mode : Variable
Overall bit rate : 531 kb/s
Frame rate : 25.000 FPS
Encoded date : 2024-02-09 08:51:48 UTC
Tagged date : 2024-02-09 08:51:48 UTC
Video
ID : 1
Format : AVC
Format/Info : Advanced Video Codec
Format profile : High@L4.1
Format settings : CABAC / 14 Ref Frames
Format settings, CABAC : Yes
Format settings, Reference : 14 frames
Codec ID : avc1
Codec ID/Info : Advanced Video Coding
Duration : 52 min 42 s
Bit rate : 400 kb/s
Maximum bit rate : 1 139 kb/s
Width : 640 pixels
Height : 360 pixels
Display aspect ratio : 16:9
Frame rate mode : Constant
Frame rate : 25.000 FPS
Color space : YUV
Chroma subsampling : 4:2:0
Bit depth : 8 bits
Scan type : Progressive
Bits/(Pixel*Frame) : 0.069
Stream size : 150 MiB (75%)
Writing library : x264 core 125 r2208 d9d2288
Encoding settings : cabac=1 / ref=14 / deblock=1:-1:-1 / analyse=0x3:0x113 / me=umh / subme=10 / psy=1 / psy_rd=1.00:0.10 / mixed_ref=1 / me_range=32 / chroma_me=1 / trellis=2 / 8x8dct=1 / cqm=0 / deadzone=21,11 / fast_pskip=0 / chroma_qp_offset=-3 / threads=6 / lookahead_threads=1 / sliced_threads=0 / nr=0 / decimate=0 / interlaced=0 / bluray_compat=0 / constrained_intra=0 / bframes=11 / b_pyramid=2 / b_adapt=2 / b_bias=0 / direct=3 / weightb=1 / open_gop=0 / weightp=2 / keyint=240 / keyint_min=24 / scenecut=40 / intra_refresh=0 / rc=2pass / mbtree=0 / bitrate=400 / ratetol=1.0 / qcomp=0.60 / qpmin=0 / qpmax=69 / qpstep=4 / cplxblur=20.0 / qblur=0.5 / ip_ratio=1.40 / pb_ratio=1.30 / aq=1:1.00
Encoded date : 2024-02-09 08:51:48 UTC
Tagged date : 2024-02-09 08:51:53 UTC
Codec configuration box : avcC
Audio
ID : 2
Format : AAC LC
Format/Info : Advanced Audio Codec Low Complexity
Codec ID : mp4a-40-2
Duration : 52 min 42 s
Bit rate mode : Variable
Bit rate : 128 kb/s
Maximum bit rate : 132 kb/s
Channel(s) : 2 channels
Channel layout : L R
Sampling rate : 48.0 kHz
Frame rate : 46.875 FPS (1024 SPF)
Compression mode : Lossy
Stream size : 48.3 MiB (24%)
Encoded date : 2024-02-09 08:51:52 UTC
Tagged date : 2024-02-09 08:51:53 UTC
Релиз от:
[Profile] [PM]

Dynamo_kh_

Gender: Male

Longevity: 4 years 10 months

Posts: 87

Post 10-Feb-2024 12:15 (after 1 hour 16 minutes)

[Quote]

СПАСИБО mjjhec !!! Раздача выполнена по моей просьбе.
[Profile] [PM]

mjjhec ®

Gender: Male

Longevity: 5 years 3 months

Posts: 2000

Location: СССР

Post 12-Feb-2024 09:12 (after 1 day 20 hours)

[Quote]

[Profile] [PM]
Display posts:    
Reply to topic

Current time is: 21-Feb 03:49

All times are UTC + 3



You cannot post new topics in this forum
You cannot reply to topics in this forum
You cannot edit your posts in this forum
You cannot delete your posts in this forum
You cannot vote in polls in this forum
You cannot attach files in this forum
You cannot download files in this forum