Всем ветрам назло [1-4 серии из 4] (2023) WEBRip от Files-х

Reply to topic
 
Author Message

papa1951deda ®

Gender: Male

Longevity: 5 years 3 months

Posts: 1726

Location: Казахстан

Post 10-Feb-2024 19:28

[Quote]

Всем ветрам назло Год выпуска: 2023
Жанр: Мелодрама
Выпущено: Россия, Кинокомпания ООО "С.Д.Л"
Режиссер: Евгений Баранов (II)
В ролях: Алена Долголенко, Настасья Самбурская, Владислав Резник, Алла Юганова, Леонид Громов, Дарья Белоусова, Роман Семейко, Маруся Фурина, Сергей Гузеев, Савелий Албутов, Данила Дедовец
О сериале: Алисе семнадцать лет, и у неё обеспеченная жизнь: богатый отец – бизнесмен Виктор Лапиков, красивый дом и много денег на карманные расходы. Вот только отношения с мачехой Еленой и её дочерью от первого брака Лидой никак не складываются. В результате козней мачехи отец объявляет Алисе, что он больше не желает видеть её, и отныне она будет жить со своей родной матерью Ольгой. Всю жизнь Алисе говорили, что её мать умерла, но недавно она узнала, что Ольга официально отказалась от дочери, когда ей было два года. Теперь героиня вынуждена расстаться с богатой жизнью и поселиться в обычном доме с отчимом Фёдором, двумя сводными братьями, Мишей и Пашей, и матерью, которую она ненавидит.

Качество: WEBRip
Видео: XviD, 1397 Кбит/с, 720x400, 25 кадр/с
Аудио: АС3, 2 ch, 192 Кбит/с
Продолжительность: 02:59:15
Перевод: Не требуется
Субтитры: Русские

Скриншоты



MediaInfo

Общее
Полное имя : D:\films\Всем ветрам назло.2023.WEB-DLRip.Files-x\01. Всем ветрам назло.2023.WEB-DLRip.Files-x.avi
Формат : AVI
Формат/Информация : Audio Video Interleave
Профиль формата : OpenDML
Настройки формата : BitmapInfoHeader / WaveFormatEx
Размер файла : 2,01 Гбайт
Продолжительность : 2 ч. 59 м.
Общий поток : 1 602 Кбит/сек
Частота кадров : 25,000 кадров/сек
Программа кодирования : VirtualDubMod 1.5.10.3 | https://www.virtualdub-fr.org || (build 2550/release)
Библиотека кодирования : VirtualDubMod build 2550/release
Видео
Идентификатор : 0
Формат : MPEG-4 Visual
Профиль формата : Advanced Simple@L5
Настройки формата : BVOP1 / Custom Matrix
Параметр BVOP формата : 1
Параметр QPel формата : Нет
Параметр GMC формата : Без точки перехода
Параметр матрицы формата : Выборочная
Идентификатор кодека : XVID
Идентификатор кодека/Подсказка : XviD
Продолжительность : 2 ч. 59 м.
Битрейт : 1 397 Кбит/сек
Ширина : 720 пикселей
Высота : 400 пикселей
Соотношение сторон : 16:9
Частота кадров : 25,000 кадров/сек
Цветовое пространство : YUV
Субдискретизация насыщенности : 4:2:0
Битовая глубина : 8 бит
Тип развёртки : Прогрессивная
Метод сжатия : С потерями
Бит/(Пиксели*Кадры) : 0.194
Размер потока : 1,75 Гбайт (87%)
Библиотека кодирования : XviD 73
Аудио
Идентификатор : 1
Формат : AC-3
Формат/Информация : Audio Coding 3
Коммерческое название : Dolby Digital
Идентификатор кодека : 2000
Продолжительность : 2 ч. 59 м.
Вид битрейта : Постоянный
Битрейт : 192 Кбит/сек
Каналы : 2 канала
Channel layout : L R
Частота : 48,0 КГц
Частота кадров : 31,250 кадров/сек (1536 SPF)
Метод сжатия : С потерями
Размер потока : 246 Мбайт (12%)
Выравнивание : Разделение по промежуткам
Продолжительность промежутка : 40 мс. (1,00 видеокадр)
Время предзагрузки промежутка : 500 мс.
Service kind : Complete Main

Раздача ведётся путём добавления новых серий

Внимание! Раздача ведётся путём добавления новых серий; при каждом добавлении создаётся новый торрент.
Чтобы начать докачку новой серии, пользователям необходимо сделать следующее:
1. Остановить скачивание;
2. Удалить старый торрент у себя из клиента (старые серии удалять не надо);
3. Скачать новый торрент и запустить его у себя в клиенте вместо старого, при этом указать клиенту путь в старую папку куда и должно происходить скачивание новых серий. Ваш клиент при этом должен произвести хеширование (проверку) старой папки и будет докачивать только те серии, которых у вас ещё нет. Старые серии при этом не удаляются, а продолжают раздаваться! Eсли вы уже удалили старые серии, то предотвратить повторную закачку старых серий можно, отжав галочку в соответствующих местах при запуске нового торрента.
Релиз от:

Release was prepared by RG Files-x

Related releases "Всем ветрам назло" (1):
Added Topic title Size
10 Feb 24  Всем ветрам назло [1-4 серии из 4] (2023) WEBRip-AVC от Files-х 2.25 GB
Find all related releases Всем ветрам назло
[Profile] [PM]
Display posts:    
Reply to topic

Current time is: 21-Feb 04:18

All times are UTC + 3



You cannot post new topics in this forum
You cannot reply to topics in this forum
You cannot edit your posts in this forum
You cannot delete your posts in this forum
You cannot vote in polls in this forum
You cannot attach files in this forum
You cannot download files in this forum