Сергий против нечисти. Яга [2 сезон: 1-2 серия из 3] (2024) WEBRip от Files-x

Reply to topic
 
Author Message

bond74 ®

Gender: Male

Longevity: 5 years 3 months

Posts: 2239

Post 10-Feb-2024 20:20

[Quote]

Сергий против нечисти. Яга Год выпуска: 2024
Жанр: Детектив, комедия, мистика, фэнтези
Выпущено: Россия, KION, Lookfilm
Режиссер: Андрей Волгин, Максим Кондратенко
В ролях: Роман Маякин, Лукерья Ильяшенко, Елена Подкаминская, Ирина Розанова, Дмитрий Куличков, Софья Володчинская, Дмитрий Красилов, Ян Цапник, Никита Тарасов, Наталья Тетенова, Сергей Стёпин, Михаил Тарабукин, Яна Кошкина, Дмитрий Хрусталёв, Дмитрий Губерниев
О фильме: В современной Москве начинают пропадать знаменитости и обычные люди. Дело нечистое, потому что за всеми преступлениями стоит настоящая нечисть. За расследования могут взяться лишь двое — охотник за нечистью Сергий и очаровательная капитан полиции Катя. День за днем они сталкиваются с фольклорными тварями и рискуют своими жизнями. А чувства, которые вспыхивают между напарниками, только помогают темным силам в этом противостоянии. Ведь ради спасения Кати Сергий вынужден заключить сомнительную сделку с Ягой.

Качество: WEBRip
Видео: XviD, ~ 1600 Кбит/с, 720x304, 25 кадр/с
Аудио: AC3, 2 ch, 192 Кбит/с
Продолжительность: 2 х~ 00:46:32
Перевод: Не требуется
Cубтитры: Нет

Скриншоты


[/ur

MediaInfo

Общее
Полное имя : C:\ШОУ\Сергий против нечисти. Яга.S03.2024.WEB-DLRip.Files-x\02. Сергий против нечисти. Яга.S03.2024.WEB-DLRip.Files-x.avi
Формат : AVI
Формат/Информация : Audio Video Interleave
Настройки формата : BitmapInfoHeader / WaveFormatEx
Размер файла : 434 Мбайт
Продолжительность : 35 м. 2 с.
Общий поток : 1 732 Кбит/сек
Частота кадров : 25,000 кадров/сек
Программа кодирования : VirtualDubMod 1.5.10.3 | www.virtualdub-fr.org || (build 2550/release)
Библиотека кодирования : VirtualDubMod build 2550/release
Видео
Идентификатор : 0
Формат : MPEG-4 Visual
Профиль формата : Advanced Simple@L5
Настройки формата : BVOP1 / Custom Matrix
Параметр BVOP формата : 1
Параметр QPel формата : Нет
Параметр GMC формата : Без точки перехода
Параметр матрицы формата : Выборочная
Идентификатор кодека : XVID
Идентификатор кодека/Подсказка : XviD
Продолжительность : 35 м. 2 с.
Битрейт : 1 530 Кбит/сек
Ширина : 720 пикселей
Высота : 304 пикселя
Соотношение сторон : 2,35:1
Частота кадров : 25,000 кадров/сек
Цветовое пространство : YUV
Субдискретизация насыщенности : 4:2:0
Битовая глубина : 8 бит
Тип развёртки : Прогрессивная
Метод сжатия : С потерями
Бит/(Пиксели*Кадры) : 0.280
Размер потока : 383 Мбайт (88%)
Библиотека кодирования : XviD 73
Аудио
Идентификатор : 1
Формат : AC-3
Формат/Информация : Audio Coding 3
Коммерческое название : Dolby Digital
Идентификатор кодека : 2000
Продолжительность : 35 м. 2 с.
Вид битрейта : Постоянный
Битрейт : 192 Кбит/сек
Каналы : 2 канала
Channel layout : L R
Частота : 48,0 КГц
Частота кадров : 31,250 кадров/сек (1536 SPF)
Метод сжатия : С потерями
Размер потока : 48,1 Мбайт (11%)
Выравнивание : Разделение по промежуткам
Продолжительность промежутка : 40 мс. (1,00 видеокадр)
Время предзагрузки промежутка : 500 мс.
Service kind : Complete Main

Раздача ведётся путём добавления новых серий

Внимание! Раздача ведётся путём добавления новых серий; при каждом добавлении создаётся новый торрент.
Чтобы начать докачку новой серии, пользователям необходимо сделать следующее:
1. Остановить скачивание;
2. Удалить старый торрент у себя из клиента (старые серии удалять не надо);
3. Скачать новый торрент и запустить его у себя в клиенте вместо старого, при этом указать клиенту путь в старую папку куда и должно происходить скачивание новых серий. Ваш клиент при этом должен произвести хеширование (проверку) старой папки и будет докачивать только те серии, которых у вас ещё нет. Старые серии при этом не удаляются, а продолжают раздаваться! Eсли вы уже удалили старые серии, то предотвратить повторную закачку старых серий можно, отжав галочку в соответствующих местах при запуске нового торрента.
Релиз от: [url=http://generalfilm.website/]

Release was prepared by RG Files-x

[Profile] [PM]
Display posts:    
Reply to topic

Current time is: 21-Feb 05:37

All times are UTC + 3



You cannot post new topics in this forum
You cannot reply to topics in this forum
You cannot edit your posts in this forum
You cannot delete your posts in this forum
You cannot vote in polls in this forum
You cannot attach files in this forum
You cannot download files in this forum