Оффлайн [2 сезон: 1-10 серия из 10] (2023) WEBRip от Generalfilm | КПК

Reply to topic
 
Author Message

mjjhec ®

Gender: Male

Longevity: 5 years 3 months

Posts: 2000

Location: СССР

Post 12-Feb-2024 14:38

[Quote]

Оффлайн 2 Год выпуска: 2023
Жанр: Триллер, детектив, драма
Выпущено: Россия, Кинокомпания "UBBLEGUM PRODUCTION"
Режиссер: Кирилл Плетнёв
В ролях: Никита Ефремов, Денис Шведов, Никита Кологривый, Полина Максимова, Альфия Закирова, Марина Ворожищева, Алёна Константинова, Тина Стойилкович, Егор Кенжаметов, Игорь Черневич, Риналь Мухаметов, Полина Пушкарук, Алексей Шевченков, Дмитрий Ульянов (I), Анна Каменкова.
О фильме: Продолжении истории поднимается на следующую ступень киберпреступности - шпионаж, где ставки значительно выше, а соперники куда умнее и хитрее любых наркодилеров. Расту предстоит сыграть в игру с кем-то, кто способен продумывать свой план на несколько шагов вперед. Единственный шанс для победы – быть на шаг дальше, а любая ошибка будет стоить очень дорого… В этом противостоянии Раст становится все больше похожим на главного антагониста и в итоге встает перед выбором: принять, что он гениальный киберпреступник, который все лучше чувствует себя в этом темном мире – или что он любящий муж и отец, все еще надеющийся собрать свою семью вместе.
Качество: WEBRip | КПК
Видео: H.264, 640x264 (2.40:1), 25 fps, 400 kb/s
Аудио: AAC, 48 kHz, 2 ch, 128 kb/s
Продолжительность: 10 x ~00:49:00
Перевод: Не требуется

Скриншоты


MediaInfo

Complete name : F:\Rip\Offlain.S02.by.mjjhec\Offlain.S02.E03.2023.WEBRip.mp4
Format : MPEG-4
Format profile : Base Media
Codec ID : isom (isom/avc1)
File size : 183 MiB
Duration : 48 min 12 s
Overall bit rate mode : Variable
Overall bit rate : 532 kb/s
Frame rate : 25.000 FPS
Encoded date : 2024-02-10 15:05:48 UTC
Tagged date : 2024-02-10 15:05:48 UTC
Video
ID : 1
Format : AVC
Format/Info : Advanced Video Codec
Format profile : High@L4.1
Format settings : CABAC / 14 Ref Frames
Format settings, CABAC : Yes
Format settings, Reference : 14 frames
Codec ID : avc1
Codec ID/Info : Advanced Video Coding
Duration : 48 min 12 s
Bit rate : 400 kb/s
Maximum bit rate : 1 386 kb/s
Width : 640 pixels
Height : 264 pixels
Display aspect ratio : 2.40:1
Frame rate mode : Constant
Frame rate : 25.000 FPS
Color space : YUV
Chroma subsampling : 4:2:0
Bit depth : 8 bits
Scan type : Progressive
Bits/(Pixel*Frame) : 0.095
Stream size : 138 MiB (75%)
Writing library : x264 core 125 r2208 d9d2288
Encoding settings : cabac=1 / ref=14 / deblock=1:-1:-1 / analyse=0x3:0x113 / me=umh / subme=10 / psy=1 / psy_rd=1.00:0.10 / mixed_ref=1 / me_range=32 / chroma_me=1 / trellis=2 / 8x8dct=1 / cqm=0 / deadzone=21,11 / fast_pskip=0 / chroma_qp_offset=-3 / threads=6 / lookahead_threads=1 / sliced_threads=0 / nr=0 / decimate=0 / interlaced=0 / bluray_compat=0 / constrained_intra=0 / bframes=11 / b_pyramid=2 / b_adapt=2 / b_bias=0 / direct=3 / weightb=1 / open_gop=0 / weightp=2 / keyint=240 / keyint_min=24 / scenecut=40 / intra_refresh=0 / rc=2pass / mbtree=0 / bitrate=400 / ratetol=1.0 / qcomp=0.60 / qpmin=0 / qpmax=69 / qpstep=4 / cplxblur=20.0 / qblur=0.5 / ip_ratio=1.40 / pb_ratio=1.30 / aq=1:1.00
Encoded date : 2024-02-10 15:05:48 UTC
Tagged date : 2024-02-10 15:05:52 UTC
Codec configuration box : avcC
Audio
ID : 2
Format : AAC LC
Format/Info : Advanced Audio Codec Low Complexity
Codec ID : mp4a-40-2
Duration : 48 min 12 s
Bit rate mode : Variable
Bit rate : 128 kb/s
Maximum bit rate : 134 kb/s
Channel(s) : 2 channels
Channel layout : L R
Sampling rate : 48.0 kHz
Frame rate : 46.875 FPS (1024 SPF)
Compression mode : Lossy
Stream size : 44.1 MiB (24%)
Encoded date : 2024-02-10 15:05:51 UTC
Tagged date : 2024-02-10 15:05:52 UTC
Релиз от:
[Profile] [PM]

Otkritka

Gender: Female

Longevity: 2 years 3 months

Posts: 49

Post 12-Feb-2024 15:50 (after 1 hour 12 minutes)

[Quote]

mjjhec, Спасибо !!! aa
[Profile] [PM]

mjjhec ®

Gender: Male

Longevity: 5 years 3 months

Posts: 2000

Location: СССР

Post 12-Feb-2024 19:00 (after 3 hours)

[Quote]

Пожалуйста.
[Profile] [PM]
Display posts:    
Reply to topic

Current time is: 21-Feb 03:52

All times are UTC + 3



You cannot post new topics in this forum
You cannot reply to topics in this forum
You cannot edit your posts in this forum
You cannot delete your posts in this forum
You cannot vote in polls in this forum
You cannot attach files in this forum
You cannot download files in this forum