Постучись в мою дверь в Москве [1 сезон: 1-41 серия из 60] (2024) WEBRip от Files-x

Reply to topic
 
Author Message

bond74 ®

Gender: Male

Longevity: 5 years 5 months

Posts: 2365

Post 12-Feb-2024 18:07

[Quote]

Постучись в мою дверь в Москве Год выпуска: 2024
Жанр: Мелодрама
Выпущено: Россия, Okko Studios, Медиаслово
Режиссер: Всеволод Аравин
В ролях: Никита Волков, Лиана Гриба, Александра Тулинова, Екатерина Шумакова, Юлия Серина, Максим Белбородов, Влад Соколовский, Анна Невская, Екатерина Волкова (I), Игорь Жижикин, Марина Кравец, Лео Канделаки, Саша Стоун (II), Константин Кожев, Николай Сердцев
О фильме: Круглая отличница Саша Гордеева мечтала о карьере ландшафтного дизайнера, но вылетела с последнего курса университета из-за того, что ее именная стипендия была аннулирована без объяснения причины. Обидевшись, девушка решает отомстить владельцу компании, которая отняла у нее стипендию, молодому и талантливому архитектору Сергею Градскому. Но их знакомство оборачивается неожиданностью — Саша получит не только возможность доучиться, но и место в компании Сергея, если два месяца будет притворяться его девушкой, чтобы он смог вернуть свою бывшую.
Качество: WEBRip
Видео:XviD, ~ 1600 Кбит/с, 704x352, 25 кадр/с
Аудио: AC3, 6 ch, 384 Кбит/с
Продолжительность: 6 x ~ 00:45:00
Перевод: Не требуется
Субтитры: Нет

Скриншоты



MediaInfo

Общее
Полное имя : D:\Постучись в мою дверь в Москве.2024.WEB-DLRip.Files-x\01 Постучись в мою дверь в Москве.2024.WEB-DLRip.Files-x.avi
Формат : AVI
Формат/Информация : Audio Video Interleave
Настройки формата : BitmapInfoHeader / WaveFormatEx
Размер файла : 622 Мбайт
Продолжительность : 44 м. 35 с.
Общий поток : 1 950 Кбит/сек
Частота кадров : 25,000 кадров/сек
Программа кодирования : VirtualDubMod 1.5.10.3 | www.virtualdub-fr.org || (build 2550/release)
Библиотека кодирования : VirtualDubMod build 2550/release
Видео
Идентификатор : 0
Формат : MPEG-4 Visual
Профиль формата : Advanced Simple@L5
Настройки формата : BVOP1 / Custom Matrix
Параметр BVOP формата : 1
Параметр QPel формата : Нет
Параметр GMC формата : Без точки перехода
Параметр матрицы формата : Выборочная
Идентификатор кодека : XVID
Идентификатор кодека/Подсказка : XviD
Продолжительность : 44 м. 35 с.
Битрейт : 1 557 Кбит/сек
Ширина : 704 пикселя
Высота : 352 пикселя
Соотношение сторон : 2,000
Частота кадров : 25,000 кадров/сек
Цветовое пространство : YUV
Субдискретизация насыщенности : 4:2:0
Битовая глубина : 8 бит
Тип развёртки : Прогрессивная
Метод сжатия : С потерями
Бит/(Пиксели*Кадры) : 0.251
Размер потока : 496 Мбайт (80%)
Библиотека кодирования : XviD 73
Аудио
Идентификатор : 1
Формат : AC-3
Формат/Информация : Audio Coding 3
Коммерческое название : Dolby Digital
Идентификатор кодека : 2000
Продолжительность : 44 м. 35 с.
Вид битрейта : Постоянный
Битрейт : 384 Кбит/сек
Каналы : 6 каналов
Channel layout : L R C LFE Ls Rs
Частота : 48,0 КГц
Частота кадров : 31,250 кадров/сек (1536 SPF)
Метод сжатия : С потерями
Размер потока : 122 Мбайт (20%)
Выравнивание : Разделение по промежуткам
Продолжительность промежутка : 40 мс. (1,00 видеокадр)
Время предзагрузки промежутка : 500 мс.
Service kind : Complete Main

Раздача ведётся путём добавления новых серий

Внимание! Раздача ведётся путём добавления новых серий; при каждом добавлении создаётся новый торрент.
Чтобы начать докачку новой серии, пользователям необходимо сделать следующее:
1. Остановить скачивание;
2. Удалить старый торрент у себя из клиента (старые серии удалять не надо);
3. Скачать новый торрент и запустить его у себя в клиенте вместо старого, при этом указать клиенту путь в старую папку куда и должно происходить скачивание новых серий. Ваш клиент при этом должен произвести хеширование (проверку) старой папки и будет докачивать только те серии, которых у вас ещё нет. Старые серии при этом не удаляются, а продолжают раздаваться! Eсли вы уже удалили старые серии, то предотвратить повторную закачку старых серий можно, отжав галочку в соответствующих местах при запуске нового торрента.
Релиз от:

Release was prepared by RG Files-x

[Profile] [PM]
Display posts:    
Reply to topic

Current time is: 24-Apr 08:45

All times are UTC + 3



You cannot post new topics in this forum
You cannot reply to topics in this forum
You cannot edit your posts in this forum
You cannot delete your posts in this forum
You cannot vote in polls in this forum
You cannot attach files in this forum
You cannot download files in this forum