Своя чужая дочь [1-4 серии из 4] (2023) WEBRip от Files-х

Reply to topic
 
Author Message

bond74 ®

Gender: Male

Longevity: 5 years 5 months

Posts: 2365

Post 19-Feb-2024 09:52

[Quote]

Своя чужая дочь
Год выпуска: 2023
Жанр: Мелодрама, драма
Выпущено: Россия, Кинокомпания "TEAM Films"
Режиссер: Наталья Хлопецкая
В ролях: Евгения Розанова, Ирина Бякова, Андрей Попов (IV), Алексей Матошин, Елена Нестерова, Алиса Прохорова, Кристина Орлянская, Максим Демченко (II)
О фильме: Вера – сирота и мать-одиночка. Она живёт в небольшом городке, работает кассиршей в банке и одна воспитывает семилетнюю дочку Дашу, которую с рождения боится потерять. В три года Вера сама потерялась на вокзале и попала в детский дом. До сих пор Вера не оставляет попыток разыскать свою мать. Неожиданно мама Марина находит Веру сама. Долгожданное воссоединение делает героиню невероятно счастливой. Но всё меняется, когда в город приезжает первая любовь Веры – Андрей со своей невестой Олесей. Андрей догадывается, что Даша его дочь, и начинает подозревать, что мать Веры – не та, за кого себя выдаёт…
Качество: WEBRip
Видео: XviD, ~ 1400 Кбит/с, 720x400, 25 кадр/с
Аудио: AC3, 2 ch, 192 Кбит/с
Продолжительность: 1 x ~ 03:02:03
Перевод: Не требуется
Субтитры: Русские

Скриншоты




MediaInfo

Общее
Полное имя : C:\ШОУ\Своя чужая дочь.2024.WEB-DLRip.Files-x\Своя чужая дочь.2024.WEB-DLRip.Files-x.avi
Формат : AVI
Формат/Информация : Audio Video Interleave
Профиль формата : OpenDML
Настройки формата : BitmapInfoHeader / WaveFormatEx
Размер файла : 2,03 Гбайт
Продолжительность : 3 ч. 2 м.
Общий поток : 1 600 Кбит/сек
Частота кадров : 25,000 кадров/сек
Программа кодирования : VirtualDubMod 1.5.10.3 | www.virtualdub-fr.org || (build 2550/release)
Библиотека кодирования : VirtualDubMod build 2550/release
Видео
Идентификатор : 0
Формат : MPEG-4 Visual
Профиль формата : Advanced Simple@L5
Настройки формата : BVOP1 / Custom Matrix
Параметр BVOP формата : 1
Параметр QPel формата : Нет
Параметр GMC формата : Без точки перехода
Параметр матрицы формата : Выборочная
Идентификатор кодека : XVID
Идентификатор кодека/Подсказка : XviD
Продолжительность : 3 ч. 2 м.
Битрейт : 1 396 Кбит/сек
Ширина : 720 пикселей
Высота : 400 пикселей
Соотношение сторон : 16:9
Частота кадров : 25,000 кадров/сек
Цветовое пространство : YUV
Субдискретизация насыщенности : 4:2:0
Битовая глубина : 8 бит
Тип развёртки : Прогрессивная
Метод сжатия : С потерями
Бит/(Пиксели*Кадры) : 0.194
Размер потока : 1,77 Гбайт (87%)
Библиотека кодирования : XviD 73
Аудио
Идентификатор : 1
Формат : AC-3
Формат/Информация : Audio Coding 3
Коммерческое название : Dolby Digital
Идентификатор кодека : 2000
Продолжительность : 3 ч. 2 м.
Вид битрейта : Постоянный
Битрейт : 192 Кбит/сек
Каналы : 2 канала
Channel layout : L R
Частота : 48,0 КГц
Частота кадров : 31,250 кадров/сек (1536 SPF)
Метод сжатия : С потерями
Размер потока : 250 Мбайт (12%)
Выравнивание : Разделение по промежуткам
Продолжительность промежутка : 40 мс. (1,00 видеокадр)
Время предзагрузки промежутка : 500 мс.
Service kind : Complete Main

Раздача ведётся путём добавления новых серий

Внимание! Раздача ведётся путём добавления новых серий; при каждом добавлении создаётся новый торрент.
Чтобы начать докачку новой серии, пользователям необходимо сделать следующее:
1. Остановить скачивание;
2. Удалить старый торрент у себя из клиента (старые серии удалять не надо);
3. Скачать новый торрент и запустить его у себя в клиенте вместо старого, при этом указать клиенту путь в старую папку куда и должно происходить скачивание новых серий. Ваш клиент при этом должен произвести хеширование (проверку) старой папки и будет докачивать только те серии, которых у вас ещё нет. Старые серии при этом не удаляются, а продолжают раздаваться! Eсли вы уже удалили старые серии, то предотвратить повторную закачку старых серий можно, отжав галочку в соответствующих местах при запуске нового торрента.
Релиз от:

Release was prepared by RG Files-x

[Profile] [PM]
Display posts:    
Reply to topic

Current time is: 24-Apr 08:26

All times are UTC + 3



You cannot post new topics in this forum
You cannot reply to topics in this forum
You cannot edit your posts in this forum
You cannot delete your posts in this forum
You cannot vote in polls in this forum
You cannot attach files in this forum
You cannot download files in this forum