Маска [5 сезон: 1-12 выпуск из 12] (2024) WEBRip от Files-x

Reply to topic
 
Author Message

bond74 ®

Gender: Male

Longevity: 5 years 6 months

Posts: 2399

Post 19-Feb-2024 12:14

[Quote]

Маска
Год выпуска: 2024
Жанр: ТВ-шоу, музыка
Выпущено: Россия, Кинокомпания "ВайТ Медиа"
Ведущие: Вячеслав Макаров
Жюри: Филипп Киркоров, Валерия, Тимур Родригез, Регина Тодоренко, Дима Билан
О фильме: На НТВ — премьера пятого, юбилейного сезона главного шоу страны "Маска". Традиционно одной из главных интриг нового сезона остаются названия масок, под которыми будут скрываться популярные представители музыки, кино, телевидения, спорта и интернета. Главными героями юбилейного сезона станут: Акула, Арлекин, Бабочка, Водяной, Горилла, Енот, Змей Горыныч, Кактус, Кот, Кукуруза, Матрёшка, Мотылёк, Перец и Щенок. Юбилейный сезон будет невероятным — таким, каких еще не было! Поэтому количество регалий, которые есть у участников и которые традиционно раскрывались за несколько недель до премьеры, в этом году останутся в секрете, потому что это помогает зрителям «вычислить» главных героев. В этом году об участниках можно сказать, что они суперпопулярны, в их общей кинематографической копилке – около 130 ролей в кино, сериалах, на театральной сцене и более 10 озвученных мультипликационных героев, а в музыкальной — около 60 позиций, но что это — студийные альбомы или саундтреки — останется в секрете! Разгадать самую охраняемую тайну российского телевидения и найти ответ на главный вопрос последних лет — "Кто скрывается под маской?" — предстоит звездным членам жюри. Ведущим проекта традиционно станет Вячеслав Макаров.
Качество: WEBRip
Видео: XviD, ~ 1400 Кбит/с, 720x400, 25 кадр/с
Аудио: AC3, 2 ch, 192 Кбит/с
Продолжительность: 03:03:47
Перевод: Не требуется
Субтитры: нет

Скриншоты



MediaInfo

Общее
Полное имя : C:\ШОУ\Маска.S05.2024.WEB-DLRip.Files-x\01. Маска.S05.2024.WEB-DLRip.Files-x.avi
Формат : AVI
Формат/Информация : Audio Video Interleave
Профиль формата : OpenDML
Настройки формата : BitmapInfoHeader / WaveFormatEx
Размер файла : 2,05 Гбайт
Продолжительность : 3 ч. 3 м.
Общий поток : 1 604 Кбит/сек
Частота кадров : 25,000 кадров/сек
Программа кодирования : VirtualDubMod 1.5.10.3 | www.virtualdub-fr.org || (build 2550/release)
Библиотека кодирования : VirtualDubMod build 2550/release
Видео
Идентификатор : 0
Формат : MPEG-4 Visual
Профиль формата : Advanced Simple@L5
Настройки формата : BVOP1 / Custom Matrix
Параметр BVOP формата : 1
Параметр QPel формата : Нет
Параметр GMC формата : Без точки перехода
Параметр матрицы формата : Выборочная
Идентификатор кодека : XVID
Идентификатор кодека/Подсказка : XviD
Продолжительность : 3 ч. 3 м.
Битрейт : 1 399 Кбит/сек
Ширина : 720 пикселей
Высота : 400 пикселей
Соотношение сторон : 16:9
Частота кадров : 25,000 кадров/сек
Цветовое пространство : YUV
Субдискретизация насыщенности : 4:2:0
Битовая глубина : 8 бит
Тип развёртки : Прогрессивная
Метод сжатия : С потерями
Бит/(Пиксели*Кадры) : 0.194
Размер потока : 1,79 Гбайт (87%)
Библиотека кодирования : XviD 73
Аудио
Идентификатор : 1
Формат : AC-3
Формат/Информация : Audio Coding 3
Коммерческое название : Dolby Digital
Идентификатор кодека : 2000
Продолжительность : 3 ч. 3 м.
Вид битрейта : Постоянный
Битрейт : 192 Кбит/сек
Каналы : 2 канала
Channel layout : L R
Частота : 48,0 КГц
Частота кадров : 31,250 кадров/сек (1536 SPF)
Метод сжатия : С потерями
Размер потока : 251 Мбайт (12%)
Выравнивание : Разделение по промежуткам
Продолжительность промежутка : 40 мс. (1,00 видеокадр)
Время предзагрузки промежутка : 500 мс.
Service kind : Complete Main

Раздача ведётся путём добавления новых серий

Внимание! Раздача ведётся путём добавления новых серий; при каждом добавлении создаётся новый торрент.
Чтобы начать докачку новой серии, пользователям необходимо сделать следующее:
1. Остановить скачивание;
2. Удалить старый торрент у себя из клиента (старые серии удалять не надо);
3. Скачать новый торрент и запустить его у себя в клиенте вместо старого, при этом указать клиенту путь в старую папку куда и должно происходить скачивание новых серий. Ваш клиент при этом должен произвести хеширование (проверку) старой папки и будет докачивать только те серии, которых у вас ещё нет. Старые серии при этом не удаляются, а продолжают раздаваться! Eсли вы уже удалили старые серии, то предотвратить повторную закачку старых серий можно, отжав галочку в соответствующих местах при запуске нового торрента.
Релиз от:

Release was prepared by RG Files-x

[Profile] [PM]
Display posts:    
Reply to topic

Current time is: 27-May 18:36

All times are UTC + 3



You cannot post new topics in this forum
You cannot reply to topics in this forum
You cannot edit your posts in this forum
You cannot delete your posts in this forum
You cannot vote in polls in this forum
You cannot attach files in this forum
You cannot download files in this forum