Семейка [2 сезон: 1-17 серии из 17] (2024) WEB-DLRip-AVC от Generalfilm | КПК

Reply to topic
 
Author Message

GORGIK ®

Gender: Male

Longevity: 5 years 5 months

Posts: 1513

Location: СССР

Post 20-Feb-2024 09:24

[Quote]

Семейка Год выпуска: 2024
Жанр: Комедия
Выпущено: Россия, Кинокомпания "ПИК АП ФИЛЬМ", "СТС"
Режиссер: Михаил Соловьёв (II)
В ролях: Ольга Дибцева, Борис Дергачёв, Вадим Демчог, Татьяна Орлова, Карина Хисматулина, Мария Корнеева (III), Алексей Родионов (IV)
О фильме: В новых сериях Надя и Сергей Нестеровы после перерыва снова обращаются к специалисту. В этот раз их беспокоят отсутствие ревности и романтики в отношениях, мнительность мамы Сергея, будущее детей, заедание стресса, неумение признавать ошибки, «невинная» ложь и другие проблемы, знакомые семейным парам. Опытный психолог готов помочь паре, правда, его советы часто имеют противоположный эффект.

Качество: WEB-DLRip-AVC
Видео: MPEG-4 AVC (x264), 640x360, ~ 500 kbps, 25.000 fps
Аудио: AAC LC, 48.0 KHz, 2 ch, 128 Kbps
Продолжительность: 17 х ~ 00:23:00
Перевод: Не требуется [Русский]
Cубтитры: нет

Скриншоты


MediaInfo

Complete name : D:\кино\Semeika.S02.2024.WEB-DLRip-AVC.KPK.GF\Semeika.s02e01.2024.WEB-DLRip-AVC.KPK.GF.mp4
Format : MPEG-4
Codec ID : M4V (isom/iso2/avc1)
File size : 107 MiB
Duration : 23mn 40s
Overall bit rate mode : Variable
Overall bit rate : 634 Kbps
Writing application : Lavf53.19.0
Video
ID : 1
Format : AVC
Format/Info : Advanced Video Codec
Format profile : High@L4.1
Format settings, CABAC : Yes
Format settings, ReFrames : 8 frames
Codec ID : avc1
Codec ID/Info : Advanced Video Coding
Duration : 23mn 40s
Bit rate : 500 Kbps
Width : 640 pixels
Height : 360 pixels
Display aspect ratio : 16:9
Frame rate mode : Constant
Frame rate : 25.000 fps
Color space : YUV
Chroma subsampling : 4:2:0
Bit depth : 8 bits
Scan type : Progressive
Bits/(Pixel*Frame) : 0.087
Stream size : 84.7 MiB (79%)
Writing library : x264 core 146 r2538 121396c
Encoding settings : cabac=1 / ref=8 / deblock=1:-1:-1 / analyse=0x3:0x133 / me=umh / subme=10 / psy=1 / psy_rd=1.00:0.00 / mixed_ref=1 / me_range=24 / chroma_me=1 / trellis=2 / 8x8dct=1 / cqm=0 / deadzone=21,11 / fast_pskip=1 / chroma_qp_offset=-2 / threads=3 / lookahead_threads=1 / sliced_threads=0 / nr=0 / decimate=1 / interlaced=0 / bluray_compat=0 / constrained_intra=0 / bframes=8 / b_pyramid=2 / b_adapt=2 / b_bias=0 / direct=3 / weightb=1 / open_gop=0 / weightp=2 / keyint=250 / keyint_min=126 / scenecut=40 / intra_refresh=0 / rc_lookahead=40 / rc=2pass / mbtree=1 / bitrate=500 / ratetol=1.0 / qcomp=0.60 / qpmin=0 / qpmax=69 / qpstep=4 / cplxblur=20.0 / qblur=0.5 / ip_ratio=1.40 / aq=1:1.00
Menus : 3
Audio
ID : 2
Format : AAC
Format/Info : Advanced Audio Codec
Format profile : LC
Codec ID : 40
Duration : 23mn 40s
Bit rate mode : Variable
Bit rate : 128 Kbps
Channel(s) : 2 channels
Channel positions : Front: L R
Sampling rate : 48.0 KHz
Frame rate : 46.875 fps (1024 spf)
Compression mode : Lossy
Stream size : 21.7 MiB (20%)
Default : Yes
Alternate group : 1
Menus : 3
Релиз от:
[Profile] [PM]
Display posts:    
Reply to topic

Current time is: 24-Apr 09:40

All times are UTC + 3



You cannot post new topics in this forum
You cannot reply to topics in this forum
You cannot edit your posts in this forum
You cannot delete your posts in this forum
You cannot vote in polls in this forum
You cannot attach files in this forum
You cannot download files in this forum