Маска [5 сезон 1-10 выпуск] (2024) WEBRip 720p от Files-x

Reply to topic
 
Author Message

bond74 ®

Gender: Male

Longevity: 5 years 5 months

Posts: 2365

Post 20-Feb-2024 17:05

[Quote]

Маска
Год выпуска: 2024
Жанр: ТВ-шоу, музыка
Выпущено: Россия, Кинокомпания "ВайТ Медиа"
Ведущие: Вячеслав Макаров
Жюри: Филипп Киркоров, Валерия, Тимур Родригез, Регина Тодоренко, Дима Билан
О фильме: На НТВ — премьера пятого, юбилейного сезона главного шоу страны "Маска". Традиционно одной из главных интриг нового сезона остаются названия масок, под которыми будут скрываться популярные представители музыки, кино, телевидения, спорта и интернета. Главными героями юбилейного сезона станут: Акула, Арлекин, Бабочка, Водяной, Горилла, Енот, Змей Горыныч, Кактус, Кот, Кукуруза, Матрёшка, Мотылёк, Перец и Щенок. Юбилейный сезон будет невероятным — таким, каких еще не было! Поэтому количество регалий, которые есть у участников и которые традиционно раскрывались за несколько недель до премьеры, в этом году останутся в секрете, потому что это помогает зрителям «вычислить» главных героев. В этом году об участниках можно сказать, что они суперпопулярны, в их общей кинематографической копилке – около 130 ролей в кино, сериалах, на театральной сцене и более 10 озвученных мультипликационных героев, а в музыкальной — около 60 позиций, но что это — студийные альбомы или саундтреки — останется в секрете! Разгадать самую охраняемую тайну российского телевидения и найти ответ на главный вопрос последних лет — "Кто скрывается под маской?" — предстоит звездным членам жюри. Ведущим проекта традиционно станет Вячеслав Макаров.
Качество: WEBRip 720p
Видео: MPEG-4 AVC, ~ 2300 Кбит/с, 1280x720, 25 кадр/с
Аудио: AC3, 2 ch, 192 Кбит/с
Продолжительность: 03:03:47
Перевод: Не требуется
Субтитры: нет

Скриншоты



MediaInfo

Общее
Уникальный идентификатор : 192962301836894667623871388139527144965 (0x912B30019BFCBF9B8E49BD63EB3D0605)
Полное имя : C:\ШОУ\Маска.S05.2024.WEB-DL 720p.Files-x\01. Маска.S05.2024.WEB-DL 720p.Files-x.mkv
Формат : Matroska
Версия формата : Version 4
Размер файла : 3,18 Гбайт
Продолжительность : 3 ч. 3 м.
Режим общего битрейта : Переменный
Общий поток : 2 489 Кбит/сек
Частота кадров : 25,000 кадров/сек
Дата кодирования : 2024-02-18 22:37:37 UTC
Программа кодирования : mkvmerge v7.8.0 ('River Man') 32bit built on Apr 3 2015 12:11:22
Библиотека кодирования : libebml v1.3.1 + libmatroska v1.4.2
Видео
Идентификатор : 1
Формат : AVC
Формат/Информация : Advanced Video Codec
Профиль формата : High@L3.1
Настройки формата : CABAC / 4 Ref Frames
Параметр CABAC формата : Да
Параметр RefFrames формата : 4 кадра
Идентификатор кодека : V_MPEG4/ISO/AVC
Продолжительность : 3 ч. 3 м.
Вид битрейта : Переменный
Битрейт : 2 295 Кбит/сек
Максимальный битрейт : 6 925 Кбит/сек
Ширина : 1 280 пикселей
Высота : 720 пикселей
Соотношение сторон : 16:9
Режим частоты кадров : Постоянный
Частота кадров : 25,000 кадров/сек
Цветовое пространство : YUV
Субдискретизация насыщенности : 4:2:0
Битовая глубина : 8 бит
Тип развёртки : Прогрессивная
Бит/(Пиксели*Кадры) : 0.100
Размер потока : 2,94 Гбайт (92%)
Default : Да
Forced : Нет
Цветовой диапазон : Limited
Основные цвета : BT.709
Характеристики трансфера : BT.709
Коэффициенты матрицы : BT.709
Аудио
Идентификатор : 2
Формат : AC-3
Формат/Информация : Audio Coding 3
Коммерческое название : Dolby Digital
Идентификатор кодека : A_AC3
Продолжительность : 3 ч. 3 м.
Вид битрейта : Постоянный
Битрейт : 192 Кбит/сек
Каналы : 2 канала
Channel layout : L R
Частота : 48,0 КГц
Частота кадров : 31,250 кадров/сек (1536 SPF)
Метод сжатия : С потерями
Размер потока : 251 Мбайт (8%)
Service kind : Complete Main
Default : Да
Forced : Нет

Раздача ведётся путём добавления новых серий

Внимание! Раздача ведётся путём добавления новых серий; при каждом добавлении создаётся новый торрент.
Чтобы начать докачку новой серии, пользователям необходимо сделать следующее:
1. Остановить скачивание;
2. Удалить старый торрент у себя из клиента (старые серии удалять не надо);
3. Скачать новый торрент и запустить его у себя в клиенте вместо старого, при этом указать клиенту путь в старую папку куда и должно происходить скачивание новых серий. Ваш клиент при этом должен произвести хеширование (проверку) старой папки и будет докачивать только те серии, которых у вас ещё нет. Старые серии при этом не удаляются, а продолжают раздаваться! Eсли вы уже удалили старые серии, то предотвратить повторную закачку старых серий можно, отжав галочку в соответствующих местах при запуске нового торрента.
Релиз от:

Release was prepared by RG Files-x

[Profile] [PM]
Display posts:    
Reply to topic

Current time is: 24-Apr 09:13

All times are UTC + 3



You cannot post new topics in this forum
You cannot reply to topics in this forum
You cannot edit your posts in this forum
You cannot delete your posts in this forum
You cannot vote in polls in this forum
You cannot attach files in this forum
You cannot download files in this forum