Как Деревянко Ломоносова играл [1-13 серии из 13] (2024) WEB-DL 720p от Files-x

Reply to topic
 
Author Message

bond74 ®

Gender: Male

Longevity: 5 years 5 months

Posts: 2365

Post 27-Feb-2024 10:15

[Quote]

Как Деревянко Ломоносова играл
Год выпуска: 2024
Жанр: Комедия
Выпущено: Россия, Кинокомпания "Art Pictures Vision", Телеканал СТС
Режиссер: Раиля Каримова
В ролях: Павел Деревянко, Антон Богданов, Варвара Володина, Артём Волобуев, Алексей Батанин, Вероника Тимофеева, Ольга Кавалай-Аксенова, Валерий Борисов, Евгений Дудников, Виктория Каруна, Анастасия Бактимирова, Сергей Вагин, Клим Шипенко
О фильме: Клим Шипенко снимает фильм про Ломоносова с Павлом Деревянко в главной роли. Но актёра настигает творческий кризис, и за вдохновением он отправляется на родину учёного, которого видит в своих фантазиях. Павел селится в доме Беловых, глава которых Егор зарабатывает физическим трудом. Появление Деревянко меняет привычный уклад местных: Егор боится потерять жену Машу, их дочь Полина влюбляется в знаменитость, а депутат Холмогор строит предвыборную компанию с помощью звезды.
Качество: WEB-DL 720p
Видео: MPEG-4 AVC, ~ 2039 Кбит/с, 1280x720, 25 кадр/с
Аудио: AC3, 2 ch, 192 Кбит/с
Продолжительность: 4 x ~ 00:24:34
Перевод: Не требуется
Субтитры: Нет

Скриншоты




MediaInfo

GОбщее
Уникальный идентификатор : 178022222195874683898628397130599205631 (0x85EDD5359D42D20D887E13C266E58AFF)
Полное имя : C:\ШОУ\Как Деревянко Ломоносова играл.2024.WEB-DL 720p.Files-x\04. Как Деревянко Ломоносова играл.2024.WEB-DL 720p.Files-x.mkv
Формат : Matroska
Версия формата : Version 4
Размер файла : 385 Мбайт
Продолжительность : 24 м. 20 с.
Общий поток : 2 213 Кбит/сек
Частота кадров : 25,000 кадров/сек
Дата кодирования : 2024-02-26 18:48:12 UTC
Программа кодирования : mkvmerge v7.8.0 ('River Man') 32bit built on Apr 3 2015 12:11:22
Библиотека кодирования : libebml v1.3.1 + libmatroska v1.4.2
Видео
Идентификатор : 1
Формат : AVC
Формат/Информация : Advanced Video Codec
Профиль формата : High@L4.1
Настройки формата : CABAC / 4 Ref Frames
Параметр CABAC формата : Да
Параметр RefFrames формата : 4 кадра
Параметр GOP формата : M=4, N=50
Идентификатор кодека : V_MPEG4/ISO/AVC
Продолжительность : 24 м. 20 с.
Битрейт : 2 019 Кбит/сек
Ширина : 1 280 пикселей
Высота : 720 пикселей
Соотношение сторон : 16:9
Описание активного формата : Full frame 16:9 image
Режим частоты кадров : Постоянный
Частота кадров : 25,000 кадров/сек
Стандарт вещания : PAL
Цветовое пространство : YUV
Субдискретизация насыщенности : 4:2:0
Битовая глубина : 8 бит
Тип развёртки : Прогрессивная
Бит/(Пиксели*Кадры) : 0.088
Размер потока : 352 Мбайт (91%)
Default : Да
Forced : Нет
Цветовой диапазон : Limited
Основные цвета : BT.709
Характеристики трансфера : BT.709
Коэффициенты матрицы : BT.709
Аудио
Идентификатор : 2
Формат : AC-3
Формат/Информация : Audio Coding 3
Коммерческое название : Dolby Digital
Идентификатор кодека : A_AC3
Продолжительность : 24 м. 20 с.
Вид битрейта : Постоянный
Битрейт : 192 Кбит/сек
Каналы : 2 канала
Channel layout : L R
Частота : 48,0 КГц
Частота кадров : 31,250 кадров/сек (1536 SPF)
Метод сжатия : С потерями
Размер потока : 33,4 Мбайт (9%)
Service kind : Complete Main
Default : Да
Forced : Нет

Внимание! Раздача ведётся путём добавления новых серий

Раздача ведётся путём добавления новых серий, при каждом добавлении создаётся новый торрент. Чтобы начать докачку новой серии, пользователям необходимо сделать следующее:
- Остановить скачивание.
- Удалить старый торрент у себя из клиента (старые серии удалять не надо).
- Скачать новый торрент и запустить его у себя в клиенте вместо старого, при этом указать клиенту путь в старую папку куда и должно происходить скачивание новых серий.
Ваш клиент при этом должен произвести хеширование (проверку) старой папки (если не производит сам - помогите ему сделать это), и будет докачивать только те серии которых у вас ещё нет. Старые серии при этом не удаляются, а продолжают раздаваться!
Релиз от:
[Profile] [PM]
Display posts:    
Reply to topic

Current time is: 24-Apr 09:47

All times are UTC + 3



You cannot post new topics in this forum
You cannot reply to topics in this forum
You cannot edit your posts in this forum
You cannot delete your posts in this forum
You cannot vote in polls in this forum
You cannot attach files in this forum
You cannot download files in this forum