Пианистка [3 сезон: 1-4 серии из 4] (2023) HDTVRip от Generalfilm | КПК

Reply to topic
 
Author Message

mjjhec ®

Gender: Male

Longevity: 5 years 5 months

Posts: 2114

Location: СССР

Post 28-Feb-2024 09:44

[Quote]

Пианистка 3 Год выпуска: 2023
Жанр: Детектив, мелодрама, триллер
Выпущено: Россия, Кинокомпания "КиноХит Продакшн"
Режиссер: Сергей Борчуков
В ролях: Евгения Лоза, Иван Жидков, Анатолий Руденко, Екатерина Ратникова, Ксения Лаврова-Глинка, Марат Башаров, Людмила Артемьева, Константин Третьяков, Эдуард Чекмазов, Марк Тузенко, Дарья Баслык, Игорь Кулачко, Евгения Короткевич.
О фильме: На операционном столе Андрея умирает пациент. Андрея отстраняют от должности завотделением, а виноватым хотят выставить анестезиолога. Однако вскоре анестезиолога находят убитым, а вслед за ним погибает лечащий врач умершего пациента. Маша с помощью своего дара пытается докопаться до истины. Есть одно важное обстоятельство, которое она от всех скрывает: её дар перестал действовать в общении с Андреем. Она не слышит, говорит ли её любимый правду или лжёт. Теперь ей приходится принимать на веру все, что он говорит, - и с каждым днём это все сложнее…
Качество: HDTVRip | КПК
Продолжительность: 4 x ~00:43:00
Перевод: Не требуется

Скриншоты


MediaInfo

Complete name : F:\Rip\Pianistka.S03.by.mjjhec\Pianistka-3.03.serya.HDTVRip.mp4
Format : MPEG-4
Format profile : Base Media
Codec ID : isom (isom/avc1)
File size : 166 MiB
Duration : 43 min 31 s
Overall bit rate mode : Variable
Overall bit rate : 532 kb/s
Frame rate : 29.970 FPS
Encoded date : 2024-02-27 07:34:10 UTC
Tagged date : 2024-02-27 07:34:10 UTC
Video
ID : 1
Format : AVC
Format/Info : Advanced Video Codec
Format profile : High@L4.1
Format settings : CABAC / 14 Ref Frames
Format settings, CABAC : Yes
Format settings, Reference : 14 frames
Codec ID : avc1
Codec ID/Info : Advanced Video Coding
Duration : 43 min 31 s
Bit rate : 400 kb/s
Maximum bit rate : 982 kb/s
Width : 640 pixels
Height : 360 pixels
Display aspect ratio : 16:9
Frame rate mode : Constant
Frame rate : 29.970 (30000/1001) FPS
Color space : YUV
Chroma subsampling : 4:2:0
Bit depth : 8 bits
Scan type : Progressive
Bits/(Pixel*Frame) : 0.058
Stream size : 124 MiB (75%)
Writing library : x264 core 125 r2208 d9d2288
Encoding settings : cabac=1 / ref=14 / deblock=1:-1:-1 / analyse=0x3:0x113 / me=umh / subme=10 / psy=1 / psy_rd=1.00:0.10 / mixed_ref=1 / me_range=32 / chroma_me=1 / trellis=2 / 8x8dct=1 / cqm=0 / deadzone=21,11 / fast_pskip=0 / chroma_qp_offset=-3 / threads=6 / lookahead_threads=1 / sliced_threads=0 / nr=0 / decimate=0 / interlaced=0 / bluray_compat=0 / constrained_intra=0 / bframes=11 / b_pyramid=2 / b_adapt=2 / b_bias=0 / direct=3 / weightb=1 / open_gop=0 / weightp=2 / keyint=240 / keyint_min=24 / scenecut=40 / intra_refresh=0 / rc=2pass / mbtree=0 / bitrate=400 / ratetol=1.0 / qcomp=0.60 / qpmin=0 / qpmax=69 / qpstep=4 / cplxblur=20.0 / qblur=0.5 / ip_ratio=1.40 / pb_ratio=1.30 / aq=1:1.00
Encoded date : 2024-02-27 07:34:10 UTC
Tagged date : 2024-02-27 07:34:14 UTC
Codec configuration box : avcC
Audio
ID : 2
Format : AAC LC
Format/Info : Advanced Audio Codec Low Complexity
Codec ID : mp4a-40-2
Duration : 43 min 31 s
Bit rate mode : Variable
Bit rate : 128 kb/s
Maximum bit rate : 134 kb/s
Channel(s) : 2 channels
Channel layout : L R
Sampling rate : 48.0 kHz
Frame rate : 46.875 FPS (1024 SPF)
Compression mode : Lossy
Stream size : 39.8 MiB (24%)
Encoded date : 2024-02-27 07:34:14 UTC
Tagged date : 2024-02-27 07:34:14 UTC
Релиз от:
[Profile] [PM]

Dynamo_kh_

Gender: Male

Longevity: 5 years

Posts: 119

Post 28-Feb-2024 09:55 (after 11 minutes)

[Quote]

СПАСИБО mjjhec !!! Раздача выполнена по моей просьбе.
[Profile] [PM]
Display posts:    
Reply to topic

Current time is: 24-Apr 09:51

All times are UTC + 3



You cannot post new topics in this forum
You cannot reply to topics in this forum
You cannot edit your posts in this forum
You cannot delete your posts in this forum
You cannot vote in polls in this forum
You cannot attach files in this forum
You cannot download files in this forum