Вернуть любой ценой [1-8 серии из 8] (2018-2024) WEB-DLRip от Files-x

Reply to topic
 
Author Message

bond74 ®

Gender: Male

Longevity: 5 years 5 months

Posts: 2365

Post 28-Feb-2024 20:51

[Quote]

Вернуть любой ценой Год выпуска: 2018-2024
Жанр:Драма, военный
Выпущено: Россия, Россия, Кинокомпания "Пиманов и партнеры", РЕН ТВ
Режиссер: Тимур Алпатов
В ролях: Антон Батырев, Сергей Пускепалис, Алексей Кравченко, Артём Алексеев (II), Дмитрий Калязин, Марина Александрова, Андрей Смоляков, Сергей Соцердотский, Лариса Домаскина, Саёра Сафари, Светлана Корчагина, Дмитрий Смирнов (V), Александр Левин (II), Даниил Беломестных, Диана Мкртчян
О фильме: СССР, 1983 год. Дина едет на стажировку в медицинский госпиталь в Афганистан и сталкивается не только с ужасами войны, но и с настоящей любовью, которой, кажется нет места на этой земле. Спасенный Диной офицер Герасимов видит в ней смысл своей жизни и готов рискнуть всем, лишь бы быть с ней. Узнав, что Дина в опасности, он отправляется на далекую горную заставу и вступает в опасный бой, чтобы спасти любимую.

Качество: WEB-DLRip
Видео:XviD, ~ 1600 Кбит/с, 720x304, 25 кадр/с
Аудио: AC3, 2 ch, 192 Кбит/с
Продолжительность: 6 х ~ 00:49:23
Перевод: Не требуется
Субтитры: Нет

Скриншоты




MediaInfo

Общее
Уникальный идентификатор : 200314486950972426074420388495091200144 (0x96B32AB81496D721A18D120C7ABA7090)
Полное имя : D:\films\Вернуть любой ценой.2024.WEB-DLRip.Files-x\02. Вернуть любой ценой.2024.WEB-DLRip.Files-x.mkv
Формат : Matroska
Версия формата : Version 2
Размер файла : 664 Мбайт
Продолжительность : 51 м. 45 с.
Общий поток : 1 794 Кбит/сек
Частота кадров : 25,000 кадров/сек
Дата кодирования : 2024-02-23 13:58:01 UTC
Программа кодирования : mkvmerge v7.8.0 ('River Man') 32bit built on Apr 3 2015 12:11:22
Библиотека кодирования : libebml v1.3.1 + libmatroska v1.4.2
Видео
Идентификатор : 1
Формат : AVC
Формат/Информация : Advanced Video Codec
Профиль формата : High@L4.1
Настройки формата : CABAC / 9 Ref Frames
Параметр CABAC формата : Да
Параметр RefFrames формата : 9 кадров
Идентификатор кодека : V_MPEG4/ISO/AVC
Продолжительность : 51 м. 45 с.
Битрейт : 1 600 Кбит/сек
Ширина : 720 пикселей
Высота : 304 пикселя
Соотношение сторон : 2,35:1
Режим частоты кадров : Постоянный
Частота кадров : 25,000 кадров/сек
Цветовое пространство : YUV
Субдискретизация насыщенности : 4:2:0
Битовая глубина : 8 бит
Тип развёртки : Прогрессивная
Бит/(Пиксели*Кадры) : 0.292
Размер потока : 580 Мбайт (87%)
Библиотека кодирования : x264 core 146 r2538 121396c
Настройки программы : cabac=1 / ref=9 / deblock=1:-2:-1 / analyse=0x3:0x133 / me=umh / subme=9 / psy=1 / psy_rd=1.00:0.15 / mixed_ref=1 / me_range=32 / chroma_me=1 / trellis=2 / 8x8dct=1 / cqm=0 / deadzone=21,11 / fast_pskip=0 / chroma_qp_offset=-3 / threads=18 / lookahead_threads=2 / sliced_threads=0 / nr=0 / decimate=1 / interlaced=0 / bluray_compat=0 / constrained_intra=0 / bframes=9 / b_pyramid=2 / b_adapt=2 / b_bias=0 / direct=1 / weightb=1 / open_gop=0 / weightp=2 / keyint=250 / keyint_min=25 / scenecut=40 / intra_refresh=0 / rc=2pass / mbtree=0 / bitrate=1600 / ratetol=1.0 / qcomp=0.60 / qpmin=0 / qpmax=69 / qpstep=4 / cplxblur=20.0 / qblur=0.5 / ip_ratio=1.40 / pb_ratio=1.30 / aq=2:1.00
Default : Да
Forced : Нет
Цветовой диапазон : Limited
Основные цвета : BT.709
Характеристики трансфера : BT.709
Коэффициенты матрицы : BT.709
Аудио
Идентификатор : 2
Формат : AC-3
Формат/Информация : Audio Coding 3
Коммерческое название : Dolby Digital
Идентификатор кодека : A_AC3
Продолжительность : 51 м. 45 с.
Вид битрейта : Постоянный
Битрейт : 192 Кбит/сек
Каналы : 2 канала
Channel layout : L R
Частота : 48,0 КГц
Частота кадров : 31,250 кадров/сек (1536 SPF)
Метод сжатия : С потерями
Размер потока : 71,1 Мбайт (11%)
Service kind : Complete Main
Default : Да
Forced : Нет

Раздача ведётся путём добавления новых серий

Внимание! Раздача ведётся путём добавления новых серий; при каждом добавлении создаётся новый торрент.
Чтобы начать докачку новой серии, пользователям необходимо сделать следующее:
1. Остановить скачивание;
2. Удалить старый торрент у себя из клиента (старые серии удалять не надо);
3. Скачать новый торрент и запустить его у себя в клиенте вместо старого, при этом указать клиенту путь в старую папку куда и должно происходить скачивание новых серий. Ваш клиент при этом должен произвести хеширование (проверку) старой папки и будет докачивать только те серии, которых у вас ещё нет. Старые серии при этом не удаляются, а продолжают раздаваться! Eсли вы уже удалили старые серии, то предотвратить повторную закачку старых серий можно, отжав галочку в соответствующих местах при запуске нового торрента.
Релиз от:

Release was prepared by RG Files-x

[Profile] [PM]
Display posts:    
Reply to topic

Current time is: 24-Apr 08:41

All times are UTC + 3



You cannot post new topics in this forum
You cannot reply to topics in this forum
You cannot edit your posts in this forum
You cannot delete your posts in this forum
You cannot vote in polls in this forum
You cannot attach files in this forum
You cannot download files in this forum