Великолепная пятерка [6 сезон: 51-63 серии] (2023-2024) SATRip от Files-x

Reply to topic
 
Author Message

Nicodem ®

Gender: Male

Longevity: 5 years 5 months

Posts: 1423

Post 29-Feb-2024 17:02

[Quote]

Великолепная пятерка
Год выпуска: 2023-2024
Жанр: Детектив, драма
Выпущено: Россия, "Триикс Медиа" по заказу Пятого канала
Режиссер: Сергей Полуянов (II)
В ролях: Павел Григорьев, Андрей Горбачёв, Алексей Красноцветов, Нодар Джанелидзе, Константин Гришанов, Егор Кутенков
О фильме: Великолепная пятерка — популярный телевизионный сериал, который уже давно завоевал сердца многих зрителей. Уже пять сезонов подряд поклонники следят за увлекательными приключениями главных героев. Но всякий раз, когда сезон подходит к концу, фанаты задают один и тот же вопрос: когда же выйдет следующая серия, нового сезона? Великолепная пятерка — это не просто сериал о дружбе и любви, это настоящий эталон стиля и элегантности. Каждая серия наполнена загадками, интригами и романтикой. А главные герои — пятеро друзей, каждый из которых обладает своей уникальной личностью и талантами. Их приключения становятся все более захватывающими с каждым сезоном. Новый сезон будет содержать еще больше захватывающих сюжетных поворотов и неожиданных развязок. Постоянный состав актеров вернется , чтобы продолжить свои роли и удивить зрителей новыми эпизодами. Также известно, что создатели сериала обратят особое внимание на качество спецэффектов и визуальных эффектов. Зрители смогут насладиться потрясающей картинкой и зрелищными сценами. Не остается и сомнений, что новый сезон сериала "Великолепная пятерка" будет замечательным продолжением популярной и увлекательной истории.

Качество: SATRip
Видео: XviD, ~ 1583 Кбит/с, 720x400, 25 кадр/с
Аудио: AC3, 2 ch, 192 Кбит/с
Продолжительность: 13 х 00:38:20
Перевод: Не требуется
Субтитры: Нет

Скриншоты



MediaInfo

General
Complete name : C:389.Великолепная пятёрка.s06.E51 (пак 2).(2024).SATRip.by.Nicodem.Files-x.avi
Format : AVI
Format/Info : Audio Video Interleave
File size : 475 MiB
Duration : 37mn 12s
Overall bit rate : 1 785 Kbps
Writing application : VirtualDubMod 1.5.10.3 | www.virtualdub-fr.org || (build 2550/release)
Writing library : VirtualDubMod build 2550/release
Video
ID : 0
Format : MPEG-4 Visual
Format profile : Advanced Simple@L5
Format settings, BVOP : 1
Format settings, QPel : No
Format settings, GMC : No warppoints
Format settings, Matrix : Custom
Codec ID : XVID
Codec ID/Hint : XviD
Duration : 37mn 12s
Bit rate : 1 583 Kbps
Width : 720 pixels
Height : 400 pixels
Display aspect ratio : 16:9
Frame rate : 25.000 fps
Color space : YUV
Chroma subsampling : 4:2:0
Bit depth : 8 bits
Scan type : Progressive
Compression mode : Lossy
Bits/(Pixel*Frame) : 0.220
Stream size : 421 MiB (89%)
Writing library : XviD 73
Audio
ID : 1
Format : AC-3
Format/Info : Audio Coding 3
Mode extension : CM (complete main)
Codec ID : 2000
Duration : 37mn 12s
Bit rate mode : Constant
Bit rate : 192 Kbps
Channel(s) : 2 channels
Channel positions : Front: L R
Sampling rate : 48.0 KHz
Bit depth : 16 bits
Compression mode : Lossy
Stream size : 51.1 MiB (11%)
Alignment : Split accross interleaves
Interleave, duration : 40 ms (1.00 video frame)
Interleave, preload duration : 500 ms

Название серий

ПАК № 2 СЕРИИ С 51-??
(389) 51 серия "В темноте"
(390) 52 серия "Сауна"
(391) 53 серия "Острые ощушения"
(392) 54 серия "Давайте пообщаемся"
(393) 55 серия "Красота"
НОВЫЕ СЕРИИ С 1 АПРЕЛЯ 2024 ГОДА
(394) 56 серия "Одуванчик"
(395) 57 серия "Электрический скат"
(396) 58 серия "На острие прогресса"
(397) 59 серия "Безумный дом"
(398) 60 серия "Крайняя мера"
(399) 61 серия "Прекрасная издалека"
(400) 62 серия "Жизнь прекрасна!"
(401) 63 серия "Интуиция"

Раздача ведётся путём добавления новых серий

Внимание! Раздача ведётся путём добавления новых серий; при каждом добавлении создаётся новый торрент.
Чтобы начать докачку новой серии, пользователям необходимо сделать следующее:
1. Остановить скачивание;
2. Удалить старый торрент у себя из клиента (старые серии удалять не надо);
3. Скачать новый торрент и запустить его у себя в клиенте вместо старого, при этом указать клиенту путь в старую папку куда и должно происходить скачивание новых серий. Ваш клиент при этом должен произвести хеширование (проверку) старой папки и будет докачивать только те серии, которых у вас ещё нет. Старые серии при этом не удаляются, а продолжают раздаваться! Eсли вы уже удалили старые серии, то предотвратить повторную закачку старых серий можно, отжав галочку в соответствующих местах при запуске нового торрента.
Релиз от:

Release was prepared by RG Files-x

Related releases "Великолепная пятерка" (10):
Added Topic title Size
23 Apr 24  Великолепная пятерка [6 сезон: 1-64 серии из ?] (2023) WEB-DLRip-AVC от Files-x 31.64 GB
16 Apr 24  Великолепная пятерка [6 сезон: 1-62 серии из ?] (2023) WEB-DLRip от Files-x 30.45 GB
16 Apr 24  Великолепная пятерка [6 сезон: 1-62 серии из ?] (2023) WEB-DL 1080p от Files-x 32.66 GB
29 Feb 24  Великолепная пятерка [6 сезон: 1-50 серии] (2023-2024) SATRip от Files-x 1 22.59 GB
25 Jan 24  Великолепная пятерка [5 сезон: 1-108 серии из 108] (2022) WEBRip от Generalfilm | КПК 3 15.89 GB
10 Jan 24  Великолепная пятерка [5 сезон: 1-108 серии из 108] (2022-2023) WEBRip от Files-x 53.58 GB
1 Jan 24  Великолепная пятерка [5 сезон: 1-108 серии из 108] (2022) WEBRip-AVC от Files-х 1 53.8 GB
31 Dec 23  Великолепная пятерка [5 сезон: 1-108 серии из 108] (2022-2023) WEBRip 1080p от Files-x 59.19 GB
16 Nov 23  Великолепная пятерка [5 сезон: 51-108 серии из 108] (2022-2023) SATRip от Files-x 1 27.16 GB
10 Nov 23  Великолепная пятерка [5 сезон: 101-104 серии из 108] (2023) SATRip 1 1.94 GB
Find all related releases Великолепная пятерка
[Profile] [PM]
Display posts:    
Reply to topic

Current time is: 24-Apr 09:32

All times are UTC + 3



You cannot post new topics in this forum
You cannot reply to topics in this forum
You cannot edit your posts in this forum
You cannot delete your posts in this forum
You cannot vote in polls in this forum
You cannot attach files in this forum
You cannot download files in this forum